A.Bruckner - Symphonie Nr.5 B-Dur (Staatskapelle Berlin - Daniel Barenboim) \\ А.Брукнер - Симфония №5 (Даниель Баренбойм) [2010, Symphony, HDTVRip 1080i]


 

[Цитировать]

Anton Bruckner - Symphonie Nr.5
Staatskapelle Berlin - Daniel Barenboim

Год выпуска: 2010
Лейбл: Arte HD
Жанр: Symphony
Продолжительность: 76'47''
Исполнители: Staatskapelle Berlin - Daniel Barenboim
Треклист: Anton Bruckner - Symphonie Nr.5 B-Dur
Качество видео: HDTVRip
Формат/Контейнер: AVI
Видео кодек: DivX
Аудио кодек: MP3
Видео поток: 1920x1080, 29 fps
Аудио поток: Mp3, 256 kbps, 48 kHz-В 2009-10 годах Даниэль Баренбойм и Оркестр Берлинской Государственной Капеллы дали ряд концертов, в рамках которых прозвучали 4-9 симфонии Антона Брукнера. Все они транслировались по ТВ, и отдельные записи появились в интернете. На мой взгляд, Баренбойм сегодня один из самых интересных интерпретаторов Брукнера. Симфонии композитора в его исполнении получаются исключительно красочными, динамичными, и даже обыкновенно сложная для восприятия Пятая слушается на одном дыхании.-

Mediainfo

ОбщееПолное имя : D:\Bruckner-5_-_Barenboim.aviФормат : AVIФормат/Информация : Audio Video InterleaveПрофиль формата : OpenDMLРазмер файла : 5,51 ГбайтПродолжительность : 1 ч. 16 м.Общий поток : 10,3 Мбит/секПрограмма кодирования : VirtualDubModRus 1.5.10.2 (build 2542/release)Библиотека кодирования : VirtualDubMod build 2542/release
ВидеоИдентификатор : 0Формат : MPEG-4 VisualПрофиль формата : Simple@L1Параметр BVOP формата : НетПараметр QPel формата : НетПараметр GMC формата : Без точки переходаПараметр матрицы формата : Default (H.263)Идентификатор кодека : DX50Идентификатор кодека/Подсказка : DivX 5Продолжительность : 1 ч. 16 м.Битрейт : 10,0 Мбит/секШирина : 1920 пикс.Высота : 1080 пикс.Соотношение сторон : 16:9Частота кадров : 29,970 кадр/секЦветовое пространство : YUVПодвыборка цветности : 4:2:0Битовая глубина : 8 битТип развёртки : ПрогрессивнаяМетод сжатия : С потерямиБит/(Пиксели*Кадры) : 0.161Размер потока : 5,37 Гбайт (97%)Библиотека кодирования : Lavc52.36.0
АудиоИдентификатор : 1Формат : MPEG AudioВерсия формата : Version 1Профиль формата : Layer 3Режим : Joint stereoИдентификатор кодека : 55Идентификатор кодека/Подсказка : MP3Продолжительность : 1 ч. 16 м.Вид битрейта : ПостоянныйБитрейт : 256 Кбит/секКаналы : 2 каналаЧастота : 48,0 КГцМетод сжатия : С потерямиЗадержка видео : 18 мс.Размер потока : 141 Мбайт (2%)Выравнивание : Разделение по промежуткамПродолжительность промежутка : 33 мс. (1,00 видеокадр)Время предзагрузки промежутка : 500 msБиблиотека кодирования : LAME3.98.

Скриншоты




Показать сообщения:    

Текущее время: 08-Дек 19:10

Часовой пояс: UTC + 3


Вы не можете начинать темы
Вы не можете отвечать на сообщения
Вы не можете редактировать свои сообщения
Вы не можете удалять свои сообщения
Вы не можете голосовать в опросах
Вы не можете прикреплять файлы к сообщениям
Вы не можете скачивать файлы