Chopin: Piano Concertos Warsaw (Antoni Wit / Энтони Вит, Nikolai Demidenko / Николай Демиденко , Evgeny Kissin / Евгений Кисин) [2010, Classical, BDRip, 720p]


 

[Цитировать]


Chopin: Piano Concertos Warsaw
-Год выпуска: 2010
Лейбл: Accentus
Страна-производитель: США-Жанр: Classical
Продолжительность: 01:31:55
Язык: English-Дирижер: Antoni Wit-Исполнители:
Nikolai Demidenko
Evgeny Kissin
Warsaw Philharmonic Orchestra
-Треклист:
Piano Concerto No. 1 in E minor, Op. 11. Mazurka in A minor, Op. 17 No. 4. (Nikolai Demidenko)
Piano Concerto No. 2 in F minor, Op. 21. Etude in C minor, Op. 10 No. 12. Waltz in E minor, Op. Posth. (Evgeny Kissin).
-Описание: To mark the bicentenary of Chopin's birth, two leading Russian pianists tackle the great Romantic composer's two piano concertos: Evgeny Kissin plays the F minor Concerto op. 21, a key work in Chopin's output, while Nikolai Demidenko performs the E minor Concerto op. 11, a virtuoso display vehicle of the first rank. They are accompanied by the Warsaw Philharmonic under the direction of Antoni Wit. Enthusiastically acclaimed by the audience at Warsaw's Philharmonic Hall on 27 February 2010, this memorable concert has been captured in first-class sound and picture quality.-Качество видео: BDRip
Формат/Контейнер: MKV
Видео кодек: H.264
Аудио кодек: DTS
Видео поток: 1 280x720 | 5 247 Kbps | 16:9 | 29.970 fps
Аудио поток: DTS | 1 510 Kbps | 6 channels | Front: L C R, Side: L R, LFE
Доп. информация: Сохранены оригинальные чаптеры как на Blu-ray-

Скриншоты







-

MediaInfo

GeneralUnique ID : 178901951480003357062689395881805535581 (0x869743363EC136818A137BDA86FAD95D)Complete name : Chopin Piano Concertos Warsaw 2010 720p Bluray DTS 5.1 x264 ELR.mkvFormat : MatroskaFile size : 4.33 GiBDuration : 1h 31mnOverall bit rate : 6 758 KbpsMovie name : Chopin Piano Concertos Warsaw 2010 Blu-ray 720p AVC DTS 5 1 ELREncoded date : UTC 2011-02-25 09:41:51Writing application : mkvmerge v4.4.0 ('Die Wiederkehr') built on Oct 31 2010 21:52:48Writing library : libebml v1.0.0 + libmatroska v1.0.0
VideoID : 1Format : AVCFormat/Info : Advanced Video CodecFormat profile : High@L4.1Format settings, CABAC : YesFormat settings, ReFrames : 3 framesFormat settings, GOP : N=1Codec ID : V_MPEG4/ISO/AVCDuration : 1h 31mnBit rate mode : VariableBit rate : 5 247 KbpsMaximum bit rate : 25.0 MbpsWidth : 1 280 pixelsHeight : 720 pixelsDisplay aspect ratio : 16:9Frame rate : 29.970 fpsColor space : YUVChroma subsampling : 4:2:0Bit depth : 8 bitsScan type : ProgressiveBits/(Pixel*Frame) : 0.190Stream size : 3.27 GiB (76%)Writing library : x264 core 112 r1867 22bfd31Encoding settings : cabac=1 / ref=3 / deblock=1:0:0 / analyse=0x3:0x133 / me=umh/ subme=9 / psy=1 / psy_rd=1.00:0.00 / mixed_ref=1 / me_range=16 / chroma_me=1 / trellis=1/ 8x8dct=1 / cqm=0 / deadzone=21,11 / fast_pskip=1 / chroma_qp_offset=-2 / threads=6/ sliced_threads=0 / nr=0 / decimate=1 / interlaced=0 / constrained_intra=0 / bframes=3/ b_pyramid=0 / b_adapt=1 / b_bias=0 / direct=1 / weightb=1 / open_gop=0 / weightp=2/ keyint=300 / keyint_min=30 / scenecut=40 / intra_refresh=0 / rc_lookahead=40 / rc=2pass/ mbtree=1 / bitrate=5247 / ratetol=1.0 / qcomp=0.60 / qpmin=0 / qpmax=51 / qpstep=4/ cplxblur=20.0 / qblur=0.5 / vbv_maxrate=25000 / vbv_bufsize=25000 / nal_hrd=vbr/ ip_ratio=1.40 / aq=1:1.00
AudioID : 2Format : DTSFormat/Info : Digital Theater SystemsCodec ID : A_DTSDuration : 1h 31mnBit rate mode : ConstantBit rate : 1 510 KbpsChannel(s) : 6 channelsChannel positions : Front: L C R, Side: L R, LFESampling rate : 48.0 KHzBit depth : 24 bitsCompression mode : LossyStream size : 990 MiB (22%)Language : English
Menu00:00:00.000 : en:00:00:00.00000:01:02.562 : en:00:01:02.56200:21:59.151 : en:00:21:59.15100:31:39.464 : en:00:31:39.46400:43:11.255 : en:00:43:11.25500:47:45.396 : en:00:47:45.39601:03:18.962 : en:01:03:18.96201:12:52.435 : en:01:12:52.43501:23:32.808 : en:01:23:32.80801:27:13.528 : en:01:27:13.52801:30:38.166 : en:01:30:38.16601:31:41.029 : en:01:31:41.029
-



Показать сообщения:    

Текущее время: 09-Дек 10:50

Часовой пояс: UTC + 3


Вы не можете начинать темы
Вы не можете отвечать на сообщения
Вы не можете редактировать свои сообщения
Вы не можете удалять свои сообщения
Вы не можете голосовать в опросах
Вы не можете прикреплять файлы к сообщениям
Вы не можете скачивать файлы