Beethoven 9 Symphonies (Thielemann, Dasch, Fujimura, Zeppenfeld, Beczala, Wiener Philharmoniker) [2010, Classical, BDRip, 720p]


 

[Цитировать]

Beethoven 9 Symphonies
-Год выпуска: 2010
Лейбл: C Major
Страна-производитель: USA-Жанр: Classical
Продолжительность: ~ 08:00:00
Язык: English
Субтитры: English / German / French / Italian / Chinese / Korean-Режиссер/Хореограф: Christian Thielemann-Исполнители:
Annette Dasch, soprano
Mihoko Fujimura, mezzo-soprano
Piotr Beczala, tenor
Georg Zeppenfeld, bass
Wiener Philharmoniker
-Треклист:
Symphony No. 1 in C major, Op. 21
Symphony No. 2 in D major, Op. 36
Symphony No 3 in E flat major Op 55 Eroica
Symphony No. 4 in B flat major, Op. 60
Symphony No. 5 in C minor, Op. 67
Symphony No 6 in F major Op 68 Pastoral
Symphony No. 7 in A major, Op. 92
Symphony No. 8 in F major, Op. 93
Symphony No 9 in D minor Op 125 Choral
Coriolan Overture Op 62
Egmont Overture Op 84
-Описание: This is the start of a Beethoven Symphonies cycle (Nos. 1-9) with Christian Thielemann and the Vienna Philharmonic Orchestra. The Beethoven cycle of the 21st century!
Wiener Philharmoniker, Christian Thielemann(conductor) recorded live at the Goldener Saal der Gesellschaft der Musikfreunde, Vienna-Качество видео: BDRip
Формат/Контейнер: MKV
Видео кодек: H.264
Аудио кодек: DTS
Видео поток: 1280x720 / ~5 000 - ~ 7000 Kbps / 29.970 fps
Аудио поток: DTS / 1 510 Kbps / Front: L C R, Side: L R-

Скриншоты










-

MediaInfoSymphony No 1 in C major Op 21 ELR

General
Unique ID : 247169388087044869715961709172072449495 (0xB9F317B3AB16CBEDBBCCCC74480905D7)
Complete name : E:\Beethoven 9 Symphonies 2010 720p Blu-ray x264 DTS 5.0 ELR\Symphony No 1 in C major Op 21 ELR.mkv
Format : Matroska
File size : 2.17 GiB
Duration : 32mn 2s
Overall bit rate : 9 687 Kbps
Movie name : Symphony No 1 in C major Op 21 ELR
Encoded date : UTC 2011-03-21 17:34:33
Writing application : mkvmerge v4.6.0 ('Still Crazy After All These Years') built on Mar 10 2011 02:50:32
Writing library : libebml v1.2.0 + libmatroska v1.1.0
Video
ID : 1
Format : AVC
Format/Info : Advanced Video Codec
Format profile : High@L4.1
Format settings, CABAC : Yes
Format settings, ReFrames : 3 frames
Codec ID : V_MPEG4/ISO/AVC
Duration : 32mn 2s
Bit rate mode : Variable
Bit rate : 8 171 Kbps
Maximum bit rate : 25.0 Mbps
Width : 1 280 pixels
Height : 720 pixels
Display aspect ratio : 16:9
Frame rate : 29.970 fps
Color space : YUV
Chroma subsampling : 4:2:0
Bit depth : 8 bits
Scan type : Progressive
Bits/(Pixel*Frame) : 0.296
Stream size : 1.79 GiB (82%)
Writing library : x264 core 112 r1867 22bfd31
Encoding settings : cabac=1 / ref=3 / deblock=1:0:0 / analyse=0x3:0x133 / me=umh / subme=7 / psy=1 / psy_rd=1.00:0.00 / mixed_ref=1 / me_range=16 / chroma_me=1 / trellis=1 / 8x8dct=1 / cqm=0 / deadzone=21,11 / fast_pskip=1 / chroma_qp_offset=-2 / threads=6 / sliced_threads=0 / nr=0 / decimate=1 / interlaced=0 / constrained_intra=0 / bframes=3 / b_pyramid=0 / b_adapt=1 / b_bias=0 / direct=1 / weightb=1 / open_gop=0 / weightp=2 / keyint=300 / keyint_min=30 / scenecut=40 / intra_refresh=0 / rc_lookahead=40 / rc=2pass / mbtree=1 / bitrate=8171 / ratetol=1.0 / qcomp=0.60 / qpmin=0 / qpmax=51 / qpstep=4 / cplxblur=20.0 / qblur=0.5 / vbv_maxrate=25000 / vbv_bufsize=25000 / nal_hrd=vbr / ip_ratio=1.40 / aq=1:1.00
Audio
ID : 2
Format : DTS
Format/Info : Digital Theater Systems
Codec ID : A_DTS
Duration : 32mn 2s
Bit rate mode : Constant
Bit rate : 1 510 Kbps
Channel(s) : 5 channels
Channel positions : Front: L C R, Side: L R
Sampling rate : 48.0 KHz
Bit depth : 24 bits
Compression mode : Lossy
Stream size : 346 MiB (16%)
Language : English

Symphony No 2 in D major Op 36 ELR

General
Unique ID : 212550188920492664389678653562827354816 (0x9FE7AD66FCCAE0D491A2245ECFD4B2C0)
Complete name : E:\Beethoven 9 Symphonies 2010 720p Blu-ray x264 DTS 5.0 ELR\Symphony No 2 in D major Op 36 ELR.mkv
Format : Matroska
File size : 2.17 GiB
Duration : 39mn 36s
Overall bit rate : 7 830 Kbps
Movie name : Symphony No 2 in D major Op 36 ELR
Encoded date : UTC 2011-03-21 19:50:00
Writing application : mkvmerge v4.6.0 ('Still Crazy After All These Years') built on Mar 10 2011 02:50:32
Writing library : libebml v1.2.0 + libmatroska v1.1.0
Video
ID : 1
Format : AVC
Format/Info : Advanced Video Codec
Format profile : High@L4.1
Format settings, CABAC : Yes
Format settings, ReFrames : 3 frames
Codec ID : V_MPEG4/ISO/AVC
Duration : 39mn 36s
Bit rate mode : Variable
Bit rate : 6 317 Kbps
Maximum bit rate : 25.0 Mbps
Width : 1 280 pixels
Height : 720 pixels
Display aspect ratio : 16:9
Frame rate : 29.970 fps
Color space : YUV
Chroma subsampling : 4:2:0
Bit depth : 8 bits
Scan type : Progressive
Bits/(Pixel*Frame) : 0.229
Stream size : 1.71 GiB (79%)
Writing library : x264 core 112 r1867 22bfd31
Encoding settings : cabac=1 / ref=3 / deblock=1:0:0 / analyse=0x3:0x133 / me=umh / subme=7 / psy=1 / psy_rd=1.00:0.00 / mixed_ref=1 / me_range=16 / chroma_me=1 / trellis=1 / 8x8dct=1 / cqm=0 / deadzone=21,11 / fast_pskip=1 / chroma_qp_offset=-2 / threads=6 / sliced_threads=0 / nr=0 / decimate=1 / interlaced=0 / constrained_intra=0 / bframes=3 / b_pyramid=0 / b_adapt=1 / b_bias=0 / direct=1 / weightb=1 / open_gop=0 / weightp=2 / keyint=300 / keyint_min=30 / scenecut=40 / intra_refresh=0 / rc_lookahead=40 / rc=2pass / mbtree=1 / bitrate=6317 / ratetol=1.0 / qcomp=0.60 / qpmin=0 / qpmax=51 / qpstep=4 / cplxblur=20.0 / qblur=0.5 / vbv_maxrate=25000 / vbv_bufsize=25000 / nal_hrd=vbr / ip_ratio=1.40 / aq=1:1.00
Audio
ID : 2
Format : DTS
Format/Info : Digital Theater Systems
Codec ID : A_DTS
Duration : 39mn 36s
Bit rate mode : Constant
Bit rate : 1 510 Kbps
Channel(s) : 5 channels
Channel positions : Front: L C R, Side: L R
Sampling rate : 48.0 KHz
Bit depth : 24 bits
Compression mode : Lossy
Stream size : 428 MiB (19%)
Language : English

Symphony No 3 in E flat major Op 55 Eroica ELR

General
Unique ID : 204891293848210302309909289550848021129 (0x9A24A0B89790FD228021C6A4E2B95289)
Complete name : E:\Beethoven 9 Symphonies 2010 720p Blu-ray x264 DTS 5.0 ELR\Symphony No 3 in E flat major Op 55 Eroica ELR.mkv
Format : Matroska
File size : 4.34 GiB
Duration : 1h 1mn
Overall bit rate : 10.0 Mbps
Movie name : Symphony No 3 in E flat major Op 55 Eroica ELR
Encoded date : UTC 2011-03-28 10:08:39
Writing application : mkvmerge v4.6.0 ('Still Crazy After All These Years') built on Mar 10 2011 02:50:32
Writing library : libebml v1.2.0 + libmatroska v1.1.0
Video
ID : 1
Format : AVC
Format/Info : Advanced Video Codec
Format profile : High@L4.1
Format settings, CABAC : Yes
Format settings, ReFrames : 3 frames
Codec ID : V_MPEG4/ISO/AVC
Duration : 1h 1mn
Bit rate mode : Variable
Bit rate : 8 512 Kbps
Maximum bit rate : 25.0 Mbps
Width : 1 280 pixels
Height : 720 pixels
Display aspect ratio : 16:9
Frame rate : 29.970 fps
Color space : YUV
Chroma subsampling : 4:2:0
Bit depth : 8 bits
Scan type : Progressive
Bits/(Pixel*Frame) : 0.308
Stream size : 3.60 GiB (83%)
Writing library : x264 core 112 r1867 22bfd31
Encoding settings : cabac=1 / ref=3 / deblock=1:0:0 / analyse=0x3:0x133 / me=umh / subme=7 / psy=1 / psy_rd=1.00:0.00 / mixed_ref=1 / me_range=16 / chroma_me=1 / trellis=1 / 8x8dct=1 / cqm=0 / deadzone=21,11 / fast_pskip=1 / chroma_qp_offset=-2 / threads=6 / sliced_threads=0 / nr=0 / decimate=1 / interlaced=0 / constrained_intra=0 / bframes=3 / b_pyramid=0 / b_adapt=1 / b_bias=0 / direct=1 / weightb=1 / open_gop=0 / weightp=2 / keyint=300 / keyint_min=30 / scenecut=40 / intra_refresh=0 / rc_lookahead=40 / rc=2pass / mbtree=1 / bitrate=8512 / ratetol=1.0 / qcomp=0.60 / qpmin=0 / qpmax=51 / qpstep=4 / cplxblur=20.0 / qblur=0.5 / vbv_maxrate=25000 / vbv_bufsize=25000 / nal_hrd=vbr / ip_ratio=1.40 / aq=1:1.00
Audio
ID : 2
Format : DTS
Format/Info : Digital Theater Systems
Codec ID : A_DTS
Duration : 1h 1mn
Bit rate mode : Constant
Bit rate : 1 510 Kbps
Channel(s) : 5 channels
Channel positions : Front: L C R, Side: L R
Sampling rate : 48.0 KHz
Bit depth : 24 bits
Compression mode : Lossy
Stream size : 669 MiB (15%)
Language : English

Symphony No 4 in B flat major Op 60 ELR

General
Unique ID : 204719564049662572747021388370128142775 (0x9A038DC9CD7CAB79AE3D7504981C01B7)
Complete name : E:\Beethoven 9 Symphonies 2010 720p Blu-ray x264 DTS 5.0 ELR\Symphony No 4 in B flat major Op 60 ELR.mkv
Format : Matroska
File size : 2.17 GiB
Duration : 41mn 47s
Overall bit rate : 7 420 Kbps
Movie name : Symphony No 4 in B flat major Op 60 ELR
Encoded date : UTC 2011-03-27 00:18:39
Writing application : mkvmerge v4.6.0 ('Still Crazy After All These Years') built on Mar 10 2011 02:50:32
Writing library : libebml v1.2.0 + libmatroska v1.1.0
Video
ID : 1
Format : AVC
Format/Info : Advanced Video Codec
Format profile : High@L4.1
Format settings, CABAC : Yes
Format settings, ReFrames : 3 frames
Codec ID : V_MPEG4/ISO/AVC
Duration : 41mn 47s
Bit rate mode : Variable
Bit rate : 5 906 Kbps
Maximum bit rate : 25.0 Mbps
Width : 1 280 pixels
Height : 720 pixels
Display aspect ratio : 16:9
Frame rate : 29.970 fps
Color space : YUV
Chroma subsampling : 4:2:0
Bit depth : 8 bits
Scan type : Progressive
Bits/(Pixel*Frame) : 0.214
Stream size : 1.68 GiB (78%)
Writing library : x264 core 112 r1867 22bfd31
Encoding settings : cabac=1 / ref=3 / deblock=1:0:0 / analyse=0x3:0x133 / me=umh / subme=7 / psy=1 / psy_rd=1.00:0.00 / mixed_ref=1 / me_range=16 / chroma_me=1 / trellis=1 / 8x8dct=1 / cqm=0 / deadzone=21,11 / fast_pskip=1 / chroma_qp_offset=-2 / threads=6 / sliced_threads=0 / nr=0 / decimate=1 / interlaced=0 / constrained_intra=0 / bframes=3 / b_pyramid=0 / b_adapt=1 / b_bias=0 / direct=1 / weightb=1 / open_gop=0 / weightp=2 / keyint=300 / keyint_min=30 / scenecut=40 / intra_refresh=0 / rc_lookahead=40 / rc=2pass / mbtree=1 / bitrate=5906 / ratetol=1.0 / qcomp=0.60 / qpmin=0 / qpmax=51 / qpstep=4 / cplxblur=20.0 / qblur=0.5 / vbv_maxrate=25000 / vbv_bufsize=25000 / nal_hrd=vbr / ip_ratio=1.40 / aq=1:1.00
Audio
ID : 2
Format : DTS
Format/Info : Digital Theater Systems
Codec ID : A_DTS
Duration : 41mn 47s
Bit rate mode : Constant
Bit rate : 1 510 Kbps
Channel(s) : 5 channels
Channel positions : Front: L C R, Side: L R
Sampling rate : 48.0 KHz
Bit depth : 24 bits
Compression mode : Lossy
Stream size : 451 MiB (20%)
Language : English

Symphony No 5 in C minor Op 67 ELR

General
Unique ID : 240766349062828163680428657000465174474 (0xB521E981186A47F5BE7B9610E0B60FCA)
Complete name : E:\Beethoven 9 Symphonies 2010 720p Blu-ray x264 DTS 5.0 ELR\Symphony No 5 in C minor Op 67 ELR.mkv
Format : Matroska
File size : 2.17 GiB
Duration : 39mn 21s
Overall bit rate : 7 881 Kbps
Movie name : Symphony No 5 in C minor Op 67 ELR
Encoded date : UTC 2011-03-27 02:37:03
Writing application : mkvmerge v4.6.0 ('Still Crazy After All These Years') built on Mar 10 2011 02:50:32
Writing library : libebml v1.2.0 + libmatroska v1.1.0
Video
ID : 1
Format : AVC
Format/Info : Advanced Video Codec
Format profile : High@L4.1
Format settings, CABAC : Yes
Format settings, ReFrames : 3 frames
Codec ID : V_MPEG4/ISO/AVC
Duration : 39mn 21s
Bit rate mode : Variable
Bit rate : 6 367 Kbps
Maximum bit rate : 25.0 Mbps
Width : 1 280 pixels
Height : 720 pixels
Display aspect ratio : 16:9
Frame rate : 29.970 fps
Color space : YUV
Chroma subsampling : 4:2:0
Bit depth : 8 bits
Scan type : Progressive
Bits/(Pixel*Frame) : 0.231
Stream size : 1.71 GiB (79%)
Writing library : x264 core 112 r1867 22bfd31
Encoding settings : cabac=1 / ref=3 / deblock=1:0:0 / analyse=0x3:0x133 / me=umh / subme=7 / psy=1 / psy_rd=1.00:0.00 / mixed_ref=1 / me_range=16 / chroma_me=1 / trellis=1 / 8x8dct=1 / cqm=0 / deadzone=21,11 / fast_pskip=1 / chroma_qp_offset=-2 / threads=6 / sliced_threads=0 / nr=0 / decimate=1 / interlaced=0 / constrained_intra=0 / bframes=3 / b_pyramid=0 / b_adapt=1 / b_bias=0 / direct=1 / weightb=1 / open_gop=0 / weightp=2 / keyint=300 / keyint_min=30 / scenecut=40 / intra_refresh=0 / rc_lookahead=40 / rc=2pass / mbtree=1 / bitrate=6367 / ratetol=1.0 / qcomp=0.60 / qpmin=0 / qpmax=51 / qpstep=4 / cplxblur=20.0 / qblur=0.5 / vbv_maxrate=25000 / vbv_bufsize=25000 / nal_hrd=vbr / ip_ratio=1.40 / aq=1:1.00
Audio
ID : 2
Format : DTS
Format/Info : Digital Theater Systems
Codec ID : A_DTS
Duration : 39mn 21s
Bit rate mode : Constant
Bit rate : 1 510 Kbps
Channel(s) : 5 channels
Channel positions : Front: L C R, Side: L R
Sampling rate : 48.0 KHz
Bit depth : 24 bits
Compression mode : Lossy
Stream size : 425 MiB (19%)
Language : English

Symphony No 6 in F major Op 68 Pastoral ELR

General
Unique ID : 248073287988953812071682355486561191590 (0xBAA12D6862CA7508A981A4C82C40C6A6)
Complete name : E:\Beethoven 9 Symphonies 2010 720p Blu-ray x264 DTS 5.0 ELR\Symphony No 6 in F major Op 68 Pastoral ELR.mkv
Format : Matroska
File size : 4.34 GiB
Duration : 50mn 39s
Overall bit rate : 12.3 Mbps
Movie name : Symphony No 6 in F major Op 68 Pastoral ELR
Encoded date : UTC 2011-03-28 13:24:15
Writing application : mkvmerge v4.6.0 ('Still Crazy After All These Years') built on Mar 10 2011 02:50:32
Writing library : libebml v1.2.0 + libmatroska v1.1.0
Video
ID : 1
Format : AVC
Format/Info : Advanced Video Codec
Format profile : High@L4.1
Format settings, CABAC : Yes
Format settings, ReFrames : 3 frames
Codec ID : V_MPEG4/ISO/AVC
Duration : 50mn 39s
Bit rate mode : Variable
Bit rate : 10.8 Mbps
Maximum bit rate : 25.0 Mbps
Width : 1 280 pixels
Height : 720 pixels
Display aspect ratio : 16:9
Frame rate : 29.970 fps
Color space : YUV
Chroma subsampling : 4:2:0
Bit depth : 8 bits
Scan type : Progressive
Bits/(Pixel*Frame) : 0.390
Stream size : 3.72 GiB (86%)
Writing library : x264 core 112 r1867 22bfd31
Encoding settings : cabac=1 / ref=3 / deblock=1:0:0 / analyse=0x3:0x133 / me=umh / subme=7 / psy=1 / psy_rd=1.00:0.00 / mixed_ref=1 / me_range=16 / chroma_me=1 / trellis=1 / 8x8dct=1 / cqm=0 / deadzone=21,11 / fast_pskip=1 / chroma_qp_offset=-2 / threads=6 / sliced_threads=0 / nr=0 / decimate=1 / interlaced=0 / constrained_intra=0 / bframes=3 / b_pyramid=0 / b_adapt=1 / b_bias=0 / direct=1 / weightb=1 / open_gop=0 / weightp=2 / keyint=300 / keyint_min=30 / scenecut=40 / intra_refresh=0 / rc_lookahead=40 / rc=2pass / mbtree=1 / bitrate=10761 / ratetol=1.0 / qcomp=0.60 / qpmin=0 / qpmax=51 / qpstep=4 / cplxblur=20.0 / qblur=0.5 / vbv_maxrate=25000 / vbv_bufsize=25000 / nal_hrd=vbr / ip_ratio=1.40 / aq=1:1.00
Audio
ID : 2
Format : DTS
Format/Info : Digital Theater Systems
Codec ID : A_DTS
Duration : 50mn 39s
Bit rate mode : Constant
Bit rate : 1 510 Kbps
Channel(s) : 5 channels
Channel positions : Front: L C R, Side: L R
Sampling rate : 48.0 KHz
Bit depth : 24 bits
Compression mode : Lossy
Stream size : 547 MiB (12%)
Language : English

Symphony No 7 in A major Op 92 ELR

General
Unique ID : 201141333651473590444602251995546630041 (0x97526968AAA6D7E3882E3E54DB03B799)
Complete name : E:\Beethoven 9 Symphonies 2010 720p Blu-ray x264 DTS 5.0 ELR\Symphony No 7 in A major Op 92 ELR.mkv
Format : Matroska
File size : 2.17 GiB
Duration : 42mn 23s
Overall bit rate : 7 312 Kbps
Movie name : Symphony No 7 in A major Op 92 ELR
Encoded date : UTC 2011-03-26 19:37:13
Writing application : mkvmerge v4.6.0 ('Still Crazy After All These Years') built on Mar 10 2011 02:50:32
Writing library : libebml v1.2.0 + libmatroska v1.1.0
Video
ID : 1
Format : AVC
Format/Info : Advanced Video Codec
Format profile : High@L4.1
Format settings, CABAC : Yes
Format settings, ReFrames : 3 frames
Codec ID : V_MPEG4/ISO/AVC
Duration : 42mn 23s
Bit rate mode : Variable
Bit rate : 5 800 Kbps
Maximum bit rate : 25.0 Mbps
Width : 1 280 pixels
Height : 720 pixels
Display aspect ratio : 16:9
Frame rate : 29.970 fps
Color space : YUV
Chroma subsampling : 4:2:0
Bit depth : 8 bits
Scan type : Progressive
Bits/(Pixel*Frame) : 0.210
Stream size : 1.67 GiB (77%)
Writing library : x264 core 112 r1867 22bfd31
Encoding settings : cabac=1 / ref=3 / deblock=1:0:0 / analyse=0x3:0x133 / me=umh / subme=7 / psy=1 / psy_rd=1.00:0.00 / mixed_ref=1 / me_range=16 / chroma_me=1 / trellis=1 / 8x8dct=1 / cqm=0 / deadzone=21,11 / fast_pskip=1 / chroma_qp_offset=-2 / threads=6 / sliced_threads=0 / nr=0 / decimate=1 / interlaced=0 / constrained_intra=0 / bframes=3 / b_pyramid=0 / b_adapt=1 / b_bias=0 / direct=1 / weightb=1 / open_gop=0 / weightp=2 / keyint=300 / keyint_min=30 / scenecut=40 / intra_refresh=0 / rc_lookahead=40 / rc=2pass / mbtree=1 / bitrate=5800 / ratetol=1.0 / qcomp=0.60 / qpmin=0 / qpmax=51 / qpstep=4 / cplxblur=20.0 / qblur=0.5 / vbv_maxrate=25000 / vbv_bufsize=25000 / nal_hrd=vbr / ip_ratio=1.40 / aq=1:1.00
Audio
ID : 2
Format : DTS
Format/Info : Digital Theater Systems
Codec ID : A_DTS
Duration : 42mn 23s
Bit rate mode : Constant
Bit rate : 1 510 Kbps
Channel(s) : 5 channels
Channel positions : Front: L C R, Side: L R
Sampling rate : 48.0 KHz
Bit depth : 24 bits
Compression mode : Lossy
Stream size : 458 MiB (21%)
Language : English

Symphony No 8 in F major Op 93 ELR

General
Unique ID : 191128249613673785172358251741552681795 (0x8FC9F6400E8AA81BBE21C9D7BC39A343)
Complete name : E:\Beethoven 9 Symphonies 2010 720p Blu-ray x264 DTS 5.0 ELR\Symphony No 8 in F major Op 93 ELR.mkv
Format : Matroska
File size : 2.17 GiB
Duration : 32mn 58s
Overall bit rate : 9 409 Kbps
Movie name : Symphony No 8 in F major Op 93 ELR
Encoded date : UTC 2011-03-26 21:37:50
Writing application : mkvmerge v4.6.0 ('Still Crazy After All These Years') built on Mar 10 2011 02:50:32
Writing library : libebml v1.2.0 + libmatroska v1.1.0
Video
ID : 1
Format : AVC
Format/Info : Advanced Video Codec
Format profile : High@L4.1
Format settings, CABAC : Yes
Format settings, ReFrames : 3 frames
Codec ID : V_MPEG4/ISO/AVC
Duration : 32mn 58s
Bit rate mode : Variable
Bit rate : 7 896 Kbps
Maximum bit rate : 25.0 Mbps
Width : 1 280 pixels
Height : 720 pixels
Display aspect ratio : 16:9
Frame rate : 29.970 fps
Color space : YUV
Chroma subsampling : 4:2:0
Bit depth : 8 bits
Scan type : Progressive
Bits/(Pixel*Frame) : 0.286
Stream size : 1.78 GiB (82%)
Writing library : x264 core 112 r1867 22bfd31
Encoding settings : cabac=1 / ref=3 / deblock=1:0:0 / analyse=0x3:0x133 / me=umh / subme=7 / psy=1 / psy_rd=1.00:0.00 / mixed_ref=1 / me_range=16 / chroma_me=1 / trellis=1 / 8x8dct=1 / cqm=0 / deadzone=21,11 / fast_pskip=1 / chroma_qp_offset=-2 / threads=6 / sliced_threads=0 / nr=0 / decimate=1 / interlaced=0 / constrained_intra=0 / bframes=3 / b_pyramid=0 / b_adapt=1 / b_bias=0 / direct=1 / weightb=1 / open_gop=0 / weightp=2 / keyint=300 / keyint_min=30 / scenecut=40 / intra_refresh=0 / rc_lookahead=40 / rc=2pass / mbtree=1 / bitrate=7896 / ratetol=1.0 / qcomp=0.60 / qpmin=0 / qpmax=51 / qpstep=4 / cplxblur=20.0 / qblur=0.5 / vbv_maxrate=25000 / vbv_bufsize=25000 / nal_hrd=vbr / ip_ratio=1.40 / aq=1:1.00
Audio
ID : 2
Format : DTS
Format/Info : Digital Theater Systems
Codec ID : A_DTS
Duration : 32mn 58s
Bit rate mode : Constant
Bit rate : 1 510 Kbps
Channel(s) : 5 channels
Channel positions : Front: L C R, Side: L R
Sampling rate : 48.0 KHz
Bit depth : 24 bits
Compression mode : Lossy
Stream size : 356 MiB (16%)
Language : English

Symphony No 9 in D minor Op 125 Choral ELR

General
Unique ID : 230194957165920766392677689653982835332 (0xAD2DEFA498744E98A71DC430297AB284)
Complete name : E:\Beethoven 9 Symphonies 2010 720p Blu-ray x264 DTS 5.0 ELR\Symphony No 9 in D minor Op 125 Choral ELR.mkv
Format : Matroska
File size : 4.33 GiB
Duration : 1h 20mn
Overall bit rate : 7 740 Kbps
Movie name : Symphony No 9 in D minor Op 125 Choral ELR
Encoded date : UTC 2011-03-28 17:48:08
Writing application : mkvmerge v4.6.0 ('Still Crazy After All These Years') built on Mar 10 2011 02:50:32
Writing library : libebml v1.2.0 + libmatroska v1.1.0
Video
ID : 1
Format : AVC
Format/Info : Advanced Video Codec
Format profile : High@L4.1
Format settings, CABAC : Yes
Format settings, ReFrames : 3 frames
Codec ID : V_MPEG4/ISO/AVC
Duration : 1h 20mn
Bit rate mode : Variable
Bit rate : 6 226 Kbps
Maximum bit rate : 25.0 Mbps
Width : 1 280 pixels
Height : 720 pixels
Display aspect ratio : 16:9
Frame rate : 29.970 fps
Color space : YUV
Chroma subsampling : 4:2:0
Bit depth : 8 bits
Scan type : Progressive
Bits/(Pixel*Frame) : 0.225
Stream size : 3.40 GiB (79%)
Writing library : x264 core 112 r1867 22bfd31
Encoding settings : cabac=1 / ref=3 / deblock=1:0:0 / analyse=0x3:0x133 / me=umh / subme=7 / psy=1 / psy_rd=1.00:0.00 / mixed_ref=1 / me_range=16 / chroma_me=1 / trellis=1 / 8x8dct=1 / cqm=0 / deadzone=21,11 / fast_pskip=1 / chroma_qp_offset=-2 / threads=6 / sliced_threads=0 / nr=0 / decimate=1 / interlaced=0 / constrained_intra=0 / bframes=3 / b_pyramid=0 / b_adapt=1 / b_bias=0 / direct=1 / weightb=1 / open_gop=0 / weightp=2 / keyint=300 / keyint_min=30 / scenecut=40 / intra_refresh=0 / rc_lookahead=40 / rc=2pass / mbtree=1 / bitrate=6226 / ratetol=1.0 / qcomp=0.60 / qpmin=0 / qpmax=51 / qpstep=4 / cplxblur=20.0 / qblur=0.5 / vbv_maxrate=25000 / vbv_bufsize=25000 / nal_hrd=vbr / ip_ratio=1.40 / aq=1:1.00
Audio
ID : 2
Format : DTS
Format/Info : Digital Theater Systems
Codec ID : A_DTS
Duration : 1h 20mn
Bit rate mode : Constant
Bit rate : 1 510 Kbps
Channel(s) : 5 channels
Channel positions : Front: L C R, Side: L R
Sampling rate : 48.0 KHz
Bit depth : 24 bits
Compression mode : Lossy
Stream size : 866 MiB (20%)
Language : English
Text #1
ID : 3
Format : VobSub
Muxing mode : zlib
Codec ID : S_VOBSUB
Codec ID/Info : The same subtitle format used on DVDs
Language : English
Text #2
ID : 4
Format : VobSub
Muxing mode : zlib
Codec ID : S_VOBSUB
Codec ID/Info : The same subtitle format used on DVDs
Language : French
Text #3
ID : 5
Format : VobSub
Muxing mode : zlib
Codec ID : S_VOBSUB
Codec ID/Info : The same subtitle format used on DVDs
Language : German
Text #4
ID : 6
Format : VobSub
Muxing mode : zlib
Codec ID : S_VOBSUB
Codec ID/Info : The same subtitle format used on DVDs
Language : Italian
Text #5
ID : 7
Format : VobSub
Muxing mode : zlib
Codec ID : S_VOBSUB
Codec ID/Info : The same subtitle format used on DVDs
Language : Spanish
Text #6
ID : 8
Format : VobSub
Muxing mode : zlib
Codec ID : S_VOBSUB
Codec ID/Info : The same subtitle format used on DVDs
Language : Chinese
Text #7
ID : 9
Format : VobSub
Muxing mode : zlib
Codec ID : S_VOBSUB
Codec ID/Info : The same subtitle format used on DVDs
Language : Korean
-



Показать сообщения:    

Текущее время: 03-Дек 12:40

Часовой пояс: UTC + 3


Вы не можете начинать темы
Вы не можете отвечать на сообщения
Вы не можете редактировать свои сообщения
Вы не можете удалять свои сообщения
Вы не можете голосовать в опросах
Вы не можете прикреплять файлы к сообщениям
Вы не можете скачивать файлы