Вечному городу - вечная музыка (Антон Сергеев, Леонид Овруцкий) [2014 г., Classical, opera, concert, SATRip]


Статистика раздачи [Обновить пиров]
Размер:  1.09 GB   |    Зарегистрирован:  1 год 1 месяц   |    Скачан:  0 раз

Полного источника не было: Никогда

 
   
 
 
 

[Цитировать]

Вечному городу - вечная музыка Год выпуска: 2014.
Жанр: Classical, opera, concert.
Продолжительность: 01:21:20.
Режиссеры: Антон Сергеев, Леонид Овруцкий, Константин Куц.
Ведущие: Ольга Кабо и Владимир Березин.
Солисты:
Группа "Кватро", Тамара Гвердцители, Алексей Неклюдов, Дина Гарипова, Евгений Кунгуров, Игорь Головатенко, Олег Погудин, Хибла Герзмава.
Центральный концертный оркестр МВД России под управлением Феликса Арановского.
Описание:
Авторский проект вокальной групы "Кватро". Приурочено к Дню Москвы.
Концерт классической музыки "Вечному городу - вечная музыка" 6 сентября 2014 года прошел на Театральной площади у стен Большого театра уже в третий раз. Концерт под открытым небом, сопровождаемый грандиозным световым шоу и праздничным салютом, вобрал в себя все лучшее: живой звук, оперные арии, романсы, эстрадную классику в исполнении известных артистов под виртуозное сопровождение оркестра. Он стал ярким и захватывающим спектаклем для москвичей и гостей столицы.

Трек-лист

01. "Праздничная увертюра"(музыка Дмитрия Шостаковича) (исполняет оркестр),
02. "Праздник любви" (музыка Александра Пахмутова, слова Николая Добронравова) (исполняет группа "Кватро"),
03. "Гранада" (музыка и слова Агустина Лары) (исполняют Тамара Гвердцители и группа "Кватро"),
04. "Нежность" (музыка Александра Пахмутова, слова Сергея Гребенникова и Николая Добронравова) (исполняет Тамара Гвердцители),
05. Песня певца за сценой (из оперы Антона Аренского "Рафаэль") (исполняет Алексей Неклюдов),
06. Ария Левки (из оперы Николая Римского-Корсакова "Майская ночь") (исполняет Алексей Неклюдов),
07. Ария Роберта (из оперы Петра Чайковского "Иоланта") (исполняет Игорь Головатенко),
08. "Эхо любви" (музыка Евгения Птичкина, слова Роберта Рождественского) (исполняют Дина Гарипова и Евгений Кунгуров),
09. "Услышь меня, хорошая" (музыка Василия Соловьёва-Седого, слова Михаила Исаковского) (исполняет Олег Погудин),
10. "Московские окна" (музыка Тихона Хренникова, слова Михаила Матусовского) (исполняет Олег Погудин),
11. Оркестровые вариации на тему русской народной песни "Эй, ухнем" (инструментовка Геннадия Пучкова) (исполняет оркестр),
12. "Верни мне музыку" (музыка Арно Бабаджаняна, слова Андрея Вознесенского) (исполняет группа "Кватро"),
13. "Есть только миг" (из кинофильма "Земля Санникова") (музыка Алексанра Зацепина, слова Леонида Дербенёва) (исполняет группа "Кватро"),
14. Каватина Нормы (из оперы Винченцо Беллини "Норма"),
15. "Журчат ручьи" (музыка Исаака Дунаевского, слова Михаила Вольпина) (исполняет Хибла Герзмава),
16. "Подмосковные вечера" (музыка Василия Соловьёва-Седого, слова Михаила Матусовского) (исполняют Хибла Герзмава и группа "Кватро"),
17. "Лучший город Земли" (музыка Арно Бабаджаняна, слова Леонида Дербенёва) (исполняют Хибла Герзмава и группа "Кватро"),
18. "Дорогие мои москвичи" (музыка Исаака Дунаевского, слова Владимира Масса, Михаила Червинского) (исполняют участники концерта).
Дополнительная информация:
Страна: Россия .
Выпущено: ГТРК "Культура".
Режиссёры: Антон Сергеев, Леонид Овруцкий.
Автор сценария: Юлия Черткова.
Режиссёр телеверсии: Константин Куц.
Оператор-постановщик: Владимир Брежнев.

Трансляция ГТРК "Культура" в 20:30 13.09.2014 г.
Релиз
Рип lesik689.

Качество видео:...SATRip
Формат:.................AVI
Видео:..720x400 (1.80:1), 25 fps, XviD build 64 ~1718 kbps avg, 0.24 bit/pixel
Аудио:..48 kHz, MPEG Layer 3, 2 ch, ~192.00 kbps avg

Отчет Media Info

Общее
Полное имя : Vechnomu.gorodu.vechnaya.musyka.2014.XviD.SATRip.fenixclub.avi
Format : AVI
Format/Info : Audio Video Interleave
File size : 1.09 GiB
Duration : 1h 21mn
Overall bit rate : 1 921 Kbps
Video
ID : 0
Format : MPEG-4 Visual
Format profile : Advanced Simple@L5
Format settings, BVOP : 2
Format settings, QPel : No
Format settings, GMC : No warppoints
Format settings, Matrix : Default (MPEG)
Codec ID : XVID
Codec ID/Hint : XviD
Duration : 1h 21mn
Bit rate : 1 719 Kbps
Width : 720 pixels
Height : 400 pixels
Display aspect ratio : 16:9
Frame rate : 25.000 fps
Color space : YUV
Chroma subsampling : 4:2:0
Bit depth : 8 bits
Scan type : Progressive
Compression mode : Lossy
Bits/(Pixel*Frame) : 0.239
Stream size : 1 000 MiB (89%)
Writing library : XviD 64
Audio
ID : 1
Format : MPEG Audio
Format version : Version 1
Format profile : Layer 3
Mode : Joint stereo
Codec ID : 55
Codec ID/Hint : MP3
Duration : 1h 21mn
Bit rate mode : Constant
Bit rate : 192 Kbps
Channel(s) : 2 channels
Sampling rate : 48.0 KHz
Compression mode : Lossy
Stream size : 112 MiB (10%)
Alignment : Split accross interleaves
Interleave, duration : 40 ms (1.00 video frame)
Interleave, preload duratio : 500 ms.

Скриншот с названием

Скриншоты


Альтернативный хост


[teatrix.ru].t6510.torrent 
Торрент: Зарегистрирован [ 2015-10-10 17:14 ] · 77DA7C7DAE0D3132E6D8613815C9E12646A31C53

Скачать .torrent

Скачать

11 KB

Статус: проверено
Скачан: 0 раз
Размер: 1.09 GB
terms.php



Быстрый ответ

Имя:

      
Для отправки сообщений необходимо включить JavaScript
Показать сообщения:    

Текущее время: 09-Дек 22:28

Часовой пояс: UTC + 3


Вы можете начинать темы
Вы можете отвечать на сообщения
Вы не можете редактировать свои сообщения
Вы не можете удалять свои сообщения
Вы не можете голосовать в опросах
Вы не можете прикреплять файлы к сообщениям
Вы можете скачивать файлы