Прокофьев - Петя и волк / Peter and the Wolf (Sting, Claudio Abbado) [1993, Великобритания, Симфоническая сказка, DVDRip] VO + Sub Rus + Original Eng


Статистика раздачи [Обновить пиров]
Размер:  785 MB   |    Зарегистрирован:  1 год 1 месяц   |    Скачан:  0 раз

Полного источника не было: Никогда

 
   
 
 
 

[Цитировать]

Петя и волк / Peter and the Wolf
Страна: Великобритания
Жанр: Симфоническая сказка
Год выпуска: 1993
Продолжительность: 00:52:14
Перевод: Одноголосый закадровый
Cубтитры: русские
Оригинальная аудиодорожка: английский
Режиссер: Кристофер Сванн / Christopher Swann, Стив Бенделэк / Steve Bendelack, Роджер Лоу / Roger Lowe
В ролях: Стинг, Рой Хадд, Генри Фегинс
Описание: Как праздничная альтернатива неизменному «Щелкунчику» - по-новому рассказанная музыкальная история про пионера Петю, ослушавшегося дедушку, а потом не испугавшегося волка. Красочная мультипликация, костюмированный оркестр лондонского экспериментального театра «Theatre de Complicite», балет, конькобежцы, цирковые артисты из оксфордского «Zippos Circus» и сам Сергей Сергеевич в роли Петиного дедушки. А в продолжение - театрализованное представление с классиками мировой музыки, с увертюрой и классической симфонией Прокофьева.
Треклист:
• Марш для духового оркестра (соч. 99)
• Петя и волк (соч. 67), чтец: Стинг
• Увертюра на еврейские темы (соч. 34 бис)
• Классическая симфония (соч. 25)
Сэмпл: http://multi-up.com/1047977
Качество видео: DVDRip
Формат видео: AVI
Видео: 704x528 (1.33:1), 29.970 fps, XviD build 50 ~1411 kbps avg, 0.13 bit/pixel
Аудио 1: 48 kHz, AC3 Dolby Digital, 2/0 (L,R) ch, ~224.00 kbps avg(Русский)
Аудио 2: 48 kHz, AC3 Dolby Digital, 3/2 (L,C,R,l,r) + LFE ch, ~448.00 kbps avg(Английский)
Формат субтитров: softsub (SRT)
Доп. информация о субтитрах: Русские внешние (МС kinozal.tv)

MediaInfo

Общее
Полное имя : F:\С моей озвучкой\Петя и волк\Peter and the Wolf.avi
Формат : AVI
Формат/Информация : Audio Video Interleave
Размер файла : 785 Мбайт
Продолжительность : 52 м.
Общий поток : 2101 Кбит/сек
Название фильма : Peter and the Wolf - A Prokofiev Fantasy
Режиссёр : Rip by MC
Жанр : Classic
Программа кодирования : VirtualDubModRus 1.5.10.2 (build 2542/release)
Библиотека кодирования : VirtualDubMod build 2542/release
Формат оригинала/Имя : Music Video
Примечание : Rutracker.org
Видео
Идентификатор : 0
Формат : MPEG-4 Visual
Профиль формата : Advanced Simple@L5
Параметр BVOP формата : 1
Параметр QPel формата : Нет
Параметр GMC формата : Без точки перехода
Параметр матрицы формата : Выборочная
Идентификатор кодека : XVID
Идентификатор кодека/Подсказка : XviD
Продолжительность : 52 м.
Битрейт : 1412 Кбит/сек
Ширина : 704 пикселя
Высота : 528 пикселей
Соотношение сторон : 4:3
Частота кадров : 29,970 кадров/сек
Цветовое пространство : YUV
Субдискретизация насыщенности : 4:2:0
Битовая глубина : 8 бит
Тип развёртки : Прогрессивная
Метод сжатия : С потерями
Бит/(Пиксели*Кадры) : 0.127
Размер потока : 528 Мбайт (67%)
Библиотека кодирования : XviD 1.2.1 (UTC 2008-12-04)
Аудио #1
Идентификатор : 1
Формат : AC-3
Формат/Информация : Audio Coding 3
Расширение режима : CM (complete main)
Параметр Endianness формата : Big
Идентификатор кодека : 2000
Продолжительность : 52 м.
Вид битрейта : Постоянный
Битрейт : 224 Кбит/сек
Каналы : 2 канала
Расположение каналов : Front: L R
Частота : 48,0 КГц
Битовая глубина : 16 бит
Метод сжатия : С потерями
Размер потока : 83,6 Мбайт (11%)
Выравнивание : Разделение по промежуткам
Продолжительность промежутка : 33 мс. (1,00 видеокадр)
Время предзагрузки промежутка : 500 мс.
Аудио #2
Идентификатор : 2
Формат : AC-3
Формат/Информация : Audio Coding 3
Расширение режима : CM (complete main)
Параметр Endianness формата : Big
Идентификатор кодека : 2000
Продолжительность : 52 м.
Вид битрейта : Постоянный
Битрейт : 448 Кбит/сек
Каналы : 6 каналов
Расположение каналов : Front: L C R, Side: L R, LFE
Частота : 48,0 КГц
Битовая глубина : 16 бит
Метод сжатия : С потерями
Задержка видео : 14 мс.
Размер потока : 167 Мбайт (21%)
Выравнивание : Разделение по промежуткам
Продолжительность промежутка : 33 мс. (1,00 видеокадр)
Время предзагрузки промежутка : 500 мс.

Скриншоты

[teatrix.ru].t6512.torrent 
Торрент: Зарегистрирован [ 2015-10-10 17:10 ] · 568F16B13E3C9DC9A7739692F2557F0798EFB18B

Скачать .torrent

Скачать

16 KB

Статус: проверено
Скачан: 0 раз
Размер: 785 MB
terms.php



Быстрый ответ

Имя:

      
Для отправки сообщений необходимо включить JavaScript
Показать сообщения:    

Текущее время: 10-Дек 11:57

Часовой пояс: UTC + 3


Вы можете начинать темы
Вы можете отвечать на сообщения
Вы не можете редактировать свои сообщения
Вы не можете удалять свои сообщения
Вы не можете голосовать в опросах
Вы не можете прикреплять файлы к сообщениям
Вы можете скачивать файлы