Ставрос Ксархакос - Диалоги с Цицанисом / Stavros Xarhakos - Tsitsani Dialogi (Национальный оркестр греческой музыки, дир. С. Ксархакос) [2004, Classical, DVDRip]


Статистика раздачи [Обновить пиров]
Размер:  649 MB   |    Зарегистрирован:  1 год 1 месяц   |    Скачан:  0 раз

Полного источника не было: Никогда

 
   
 
 
 

[Цитировать]

Σταύρος Ξαρχάκος – Τσιτσάνη ΔιάλογοιСтаврос Ксархакос - Диалоги с Цицанисом Год выпуска: 2004
Год записи: 1995
Страна-производитель: Греция
Жанр: Rebetiko / Classical / Jazz
Продолжительность: 00:46:37
Исполнители:
Национальный оркестр греческой музыки, дир. С. Ксархакос
(Κρατική Ορχήστρα Ελληνικής Μουσικής (ΚΟΕΜ); Διεύθυνση ορχήστρας: Σ. Ξαρχάκος)
Качество видео: DVDRip
Источник: собственный рип
Формат/Контейнер: AVI
Видео кодек: XviD
Аудио кодек: AC3
Видео поток: 720x544, 4:3, 1489 kbps, 25,000 fps
Аудио поток: Original, AC3, 448 Kbps, 48000 Hz, 2 ch

Описание

Национальный оркестр греческой музыки был учрежден Министерством культуры Греции в конце 1994 года (министром тогда был известный композитор Фанос Микрутсикос). Художественным руководителем и дирижером оркестра с момента его основания стал композитор Ставрос Ксархакос.
Под его руководством оркестр взял курс на исполнение греческой музыки самых разных жанров и эпох: от византийской и фолка до современной.
В октябре 1995 года в Афинах на сцене Одеона Герода Аттического оркестр выступил с программой "Диалоги с Цицанисом". Ксархакос обратился к раннему периоду творчества Василиса Цицаниса, 1932-1946 гг, - времени его становления как музыканта. Проявив незаурядные способности в области аранжировки, Ксархакос объединяет в гармоничное целое популярные мелодии Цицаниса с достижениями европейской классической музыки (в музыкальную ткань вплетены цитаты из Бетховена, Сен-Санса, Малера, Сметаны, Баха, Дворжака, Мусоргского, Шопена, Моцарта, Листа, а также Пьяццоллы, Хадзидакиса, Папаиоанну), в некоторых же случаях прибегает к джазовой стилистике.

Состав оркестра

Θωμάς Μαυρόπουλος - μπουζούκι,
Γιάννης Σινάνης - μπουζούκι,
Ηρακλής Ζάκκας - μπουζούκι & μπαγλαμάς,
Διαμαντής Σιδερίδης - μπαγλαμάς & τζουράς,
Ολγα Αργυρίδου - βιολοντσέλο,
Ηρακλής Βαβάτσικας - ακορντεόν,
Στέφανος Στεφανόπουλος - κλαρίνο, φλάουτο & φυσαρμόνικα,
Βαγγέλης Χριστόπουλος - όμποε,
Σταύρος Σωφράς - πιάνο,
Νίκος Σακκάς - κιθάρα,
Νίκος Σαμπαζιώτης - κιθάρα,
Ανδρέας Παπάς - κρουστά,
Στέλιος Ζαχαρίου - κρουστά,
Ηλίας Λυμπερόπουλος - κοντραμπάσο.

Состав оркестра (рус.)

Фомас Мавропулос - бузуки
Яннис Синанис - бузуки
Ираклис Заккас - бузуки и багламас
Диамандис Сидеридис - багламас и дзурас
Ольга Другалова-Аргириду - виолончель
Ираклис Ваватсикас - аккордеон
Стефанос Стефанопулос - кларнет, флейта и губная гармоника
Вангелис Христопулос - гобой
Ставрос Софрас - фортепиано
Никос Саккас - гитара
Никос Сабазиотис - гитара
Андреас Папас - перкуссия
Стелиос Захариу - перкуссия
Илиас Либеропулос - контрабас

Треклист

(В скобках дано название оригинальной композиции, её авторы, а также годы создания и первой публикации в грамзаписи )
1. Οι μάντρες των ξεχασμένων κήπων
(Στου Αλευρά τη μάντρα ή Ματζαράγκας, 1938 δισκ. 1939 Σ. Παγιουμτζής - Β. Τσιτσάνης) 
http://www.youtube.com/watch?v=ThKfaH1EB14
2. Με τα πανέμορφα ογλάν
(Τα παντρεμενάδικα, 1932 δισκ. 1939 Ντ. Σταυροπούλου - Β. Τσιτσάνης) 
http://www.youtube.com/watch?v=wVNCu9eBo4g
3. Ο νεαρός από τα Τρίκαλα στο Cotton Club
(Μια Κυριακή σε γνώρισα ή Όταν σε πρωτογνώρισα, 1938 Σ. Παγιουμτζής - Σ. Περπινιάδης) 
http://www.youtube.com/watch?v=ELZGu6ArE5g
4. Στις σκιές τριών φίλων
(Μια βίλα εγώ να σου 'χτιζα, 1932 δισκ. 1939 Σ. Παγιουμτζής - Β. Τσιτσάνης) 
http://www.youtube.com/watch?v=otEbIHbionE
5. Νυχτερινό παλιού πάθους
(Ό,τι κι αν πω δε σε ξεχνώ, 1939 δισκ. 1940 Σ. Περπινιάδης - Β. Τσιτσάνης) 
http://www.youtube.com/watch?v=dl1AaWIj1cY
6. Ο κ. Σατί στο ουζερί της Παύλου Μελά
(Θα ρωτήσω τη μαμά σου, 1932 δισκ. 1938 Σ. Παγιουμτζής - Σ. Περπινιάδης) 
http://www.youtube.com/watch?v=qNlWwGdKekQ
7. Όταν χόρευε η Φρίντα
(Τρικαλινή τσαχπίνα, 1937 δισκ. 1938 Σ. Περπινιάδης - Π. Χρυσίνης) |
http://www.youtube.com/watch?v=mDiVwCf8PTU

MediaInfo

ОбщееПолное имя : D:\Stavros Xarhakos - Tsitsani Dialogi.aviФормат : AVIФормат/Информация : Audio Video InterleaveРазмер файла : 649 МбайтПродолжительность : 46 м.Общий поток : 1947 Кбит/секБиблиотека кодирования : VirtualDub build 32842/release
ВидеоИдентификатор : 0Формат : MPEG-4 VisualПрофиль формата : Advanced Simple@L5Параметр BVOP формата : НетПараметр QPel формата : НетПараметр GMC формата : Без точки переходаПараметр матрицы формата : Default (H.263)Идентификатор кодека : DX50Идентификатор кодека/Подсказка : DivX 5Продолжительность : 46 м.Битрейт : 1489 Кбит/секШирина : 720 пикселейВысота : 544 пикселяСоотношение сторон : 4:3Частота кадров : 25,000 кадров/секЦветовое пространство : YUVСубдискретизация насыщенности : 4:2:0Битовая глубина : 8 битТип развёртки : ПрогрессивнаяМетод сжатия : С потерямиБит/(Пиксели*Кадры) : 0.152Размер потока : 497 Мбайт (76%)Библиотека кодирования : XviD 64
АудиоИдентификатор : 1Формат : AC-3Формат/Информация : Audio Coding 3Расширение режима : CM (complete main)Параметр Endianness формата : BigИдентификатор кодека : 2000Продолжительность : 46 м.Вид битрейта : ПостоянныйБитрейт : 448 Кбит/секКаналы : 2 каналаРасположение каналов : Front: L RЧастота : 48,0 КГцБитовая глубина : 16 битМетод сжатия : С потерямиРазмер потока : 149 Мбайт (23%)Выравнивание : Соединение по промежуткамПродолжительность промежутка : 40 мс. (1,00 видеокадр)Время предзагрузки промежутка : 512 мс.
Сравнение двух композиций из программы "Диалоги с Цицанисом" с исходными образцами: -
[teatrix.ru].t6514.torrent 
Торрент: Зарегистрирован [ 2015-10-10 17:10 ] · DF58A35C664662ADB7A372B6354266474DAF49E6

Скачать .torrent

Скачать

13 KB

Статус: проверено
Скачан: 0 раз
Размер: 649 MB
terms.php



Быстрый ответ

Имя:

      
Для отправки сообщений необходимо включить JavaScript
Показать сообщения:    

Текущее время: 03-Дек 20:38

Часовой пояс: UTC + 3


Вы можете начинать темы
Вы можете отвечать на сообщения
Вы не можете редактировать свои сообщения
Вы не можете удалять свои сообщения
Вы не можете голосовать в опросах
Вы не можете прикреплять файлы к сообщениям
Вы можете скачивать файлы