Тосканини своими словами / Toscanini in His Own Words (Ларри Вайнштейн / Larry Weinstein) [2009, Classical & Documantary, DVDRip-AVC] MVO (Культура)


Статистика раздачи [Обновить пиров]
Размер:  1.03 GB   |    Зарегистрирован:  1 год 2 месяца   |    Скачан:  0 раз

Полного источника не было: Никогда

 
   
 
 
 

[Цитировать]

"Искусство - это моя жизненная необходимость,
моя сокровенная радость и причина моих страданий..."

»«ТОСКАНИНИ — СВОИМИ СЛОВАМИ»«
25 марта (March 25,) 1867 - 16 января (January 16,) 1957
В фильме снимались:
Артуро ТОСКАНИНИ Барри ДЖЕКСОН Barry Jackson
Вальтер ТОСКАНИНИ Джозеф ЛОНГ Joseph Long
Валли ТОСКАНИНИ Каролина ДЖАММЕТТА Carolina Giammetta
Уилфрид ПЕЛЛЕТЬЕ Майкл БРЕНДОН Michael Brandon
Анита КОЛОМБО Дженни ГУЗЕНС Jennie Goossens
Айрис КАНТЕЛЛИ Валентина ЧИКО Valentina Chico
РЕЖИССЁР ЛАРРИ ВАЙНШТЕЙН Larry Weinstein
•••
Год записи/выхода: 2008/2009
Страна/Издатель: France / EuroArts
Продолжительность: 70 min.
Перевод: Профессиональный (многоголосый закадровый)
Субтитры/Subtitles: Русские (forced) на хардсаб
Качество видео: DVDRip-AVC
Исходник: DVD9 [Спасибо, ditoDGC!]
Формат/Контейнер: MKV
Видео поток: H.264 712@846x480, 1715 kbps, 29,970 fps.
Аудио поток 1: Russian, AC-3 192 kbps, 48,0 KHz, 2 ch original
Аудио поток 2: English, AC-3 192 kbps, 48,0 KHz, 2 ch
За реконструкцию аудио контейнера спасибо ALEX7691


— EXCERPTS FROM —
BEETHOVEN:
Symphony No. 9 (1952) • Missa Solemnis (1953) • Piano Concerto No. 3 (1944)
BERLIOZ: Damnation of Faust, Rakoczy March (1945)
BIZET: L'Arlésienne Suite (1943)
MARTUCCI: Symphony No.1 (1938)
PUCCINI: La Bohème - Addio, Senza Rancor (1946)
VERDI: La Traviata (1946) •Otello (1947) • Te Deum (1954)
Un ballo in maschera (1954) • Nabucco - Va Pensiero (1943)
NBC Orchestra / Arturo Toscanini
TCHAIKOVSKY: Symphony No. 6 ‘Pathetique’
The Philadelphia Orchestra / Arturo Toscanini (1942)
PUCCINI: Manon Lescaut - Intermezzo and Act III
La Scala Orchestra / Arturo Toscanini (1946)
BELLINI:
I Puritani Maria Callas (soprano)
La Scala Orchestra / Tullio Serafin (1953)
CATALANI:
In Sogno, Extract from Impressioni / Pietro Spada
FRANCK:
Symphony in D min: lento allegro non troppo
Hilversum RSO / Leopold Stokowski (1970)
PUCCINI:
• Madame Butterfly Overture
Paris Orchestra / James Conlon (1993)
• Turandot Chorus of the Opéra du Rhin,
Strasbourg Philharmonic Orchestra / Alain Lombard (1977)
•••

Скриншоты


MediaInfo


-

x264.log


avs [info]: 712x480p 952:801 @ 30000/1001 fps (cfr)
x264 [info]: using SAR=952/801
x264 [info]: using cpu capabilities: MMX2 SSE2Fast SSEMisalign LZCNT
x264 [info]: profile High, level 4.1
x264 [info]: frame I:888 Avg QP:17.60 size: 43481
x264 [info]: frame P:34293 Avg QP:19.19 size: 16311
x264 [info]: frame B:114933 Avg QP:21.85 size: 4141
x264 [info]: consecutive B-frames: 3.1% 1.4% 7.8% 20.3% 25.9% 37.4% 4.2%
x264 [info]: mb I I16..4: 7.0% 77.1% 15.8%
x264 [info]: mb P I16..4: 0.1% 9.3% 0.7% P16..4: 31.8% 38.2% 15.0% 2.3% 0.3% skip: 2.3%
x264 [info]: mb B I16..4: 0.0% 0.9% 0.1% B16..8: 32.5% 18.0% 2.4% direct: 6.2% skip:39.9% L0:37.3% L1:44.7% BI:18.0%
x264 [info]: 8x8 transform intra:89.7% inter:55.3%
x264 [info]: coded y,uvDC,uvAC intra: 97.5% 53.8% 27.8% inter: 25.3% 13.7% 1.2%
x264 [info]: i16 v,h,dc,p: 26% 6% 22% 47%
x264 [info]: i8 v,h,dc,ddl,ddr,vr,hd,vl,hu: 14% 8% 6% 8% 11% 16% 10% 15% 13%
x264 [info]: i4 v,h,dc,ddl,ddr,vr,hd,vl,hu: 15% 7% 3% 8% 14% 18% 12% 13% 11%
x264 [info]: i8c dc,h,v,p: 35% 36% 19% 10%
x264 [info]: Weighted P-Frames: Y:20.3% UV:5.1%
x264 [info]: ref P L0: 43.0% 11.8% 17.6% 6.4% 5.9% 4.3% 4.4% 2.5% 2.9% 1.0% 0.1%
x264 [info]: ref B L0: 80.1% 9.4% 3.7% 2.3% 1.6% 1.5% 0.9% 0.5%
x264 [info]: ref B L1: 96.6% 3.4%
x264 [info]: kb/s:1715.25
x264 [total]: encoded 150114 frames, 4.61 fps, 1715.25 kb/s
-
General
Unique ID : 242071161206774999508278532589161608500 (0xB61D35B5B83ADAA4AB7A3C41A628F534)
Complete name : Toscanini in His Own Words (MVO, Культура).mkv
Format : Matroska
Format version : Version 4 / Version 2
File size : 1.03 GiB
Duration : 1h 10mn
Overall bit rate : 2 088 Kbps
Encoded date : UTC 2015-03-01 13:34:04
Writing application : mkvmerge v7.6.0 ('Garden of Dreams') 32bit built on Feb 8 2015 12:51:39
Writing library : libebml v1.3.1 + libmatroska v1.4.2
_STATISTICS_WRITING_APP : mkvmerge v7.6.0 ('Garden of Dreams') 32bit built on Feb 8 2015 12:51:39
_STATISTICS_WRITING_DATE_UTC : 2015-03-01 13:34:04
_STATISTICS_TAGS : BPS DURATION NUMBER_OF_FRAMES NUMBER_OF_BYTES
DURATION : 01:07:33.650000000
NUMBER_OF_FRAMES : 12
NUMBER_OF_BYTES : 1724
Video
ID : 1
Format : AVC
Format/Info : Advanced Video Codec
Format profile : High@L4.1
Format settings, CABAC : Yes
Format settings, ReFrames : 9 frames
Codec ID : V_MPEG4/ISO/AVC
Duration : 1h 10mn
Bit rate : 1 663 Kbps
Width : 712 pixels
Height : 480 pixels
Display aspect ratio : 16:9
Frame rate mode : Constant
Frame rate : 29.970 fps
Color space : YUV
Chroma subsampling : 4:2:0
Bit depth : 8 bits
Scan type : Progressive
Bits/(Pixel*Frame) : 0.162
Stream size : 839 MiB (80%)
Language : English
Default : Yes
Forced : No
_STATISTICS_WRITING_APP : mkvmerge v7.6.0 ('Garden of Dreams') 32bit built on Feb 8 2015 12:51:39
_STATISTICS_WRITING_DATE_UTC : 2015-03-01 13:34:04
_STATISTICS_TAGS : BPS DURATION NUMBER_OF_FRAMES NUMBER_OF_BYTES
DURATION : 01:10:32.691000000
NUMBER_OF_FRAMES : 126853
NUMBER_OF_BYTES : 900498938
Audio #1
ID : 2
Format : AC-3
Format/Info : Audio Coding 3
Mode extension : CM (complete main)
Format settings, Endianness : Big
Codec ID : A_AC3
Duration : 1h 10mn
Bit rate mode : Constant
Bit rate : 192 Kbps
Channel(s) : 2 channels
Channel positions : Front: L R
Sampling rate : 48.0 KHz
Bit depth : 16 bits
Compression mode : Lossy
Stream size : 96.9 MiB (9%)
Language : Russian
Default : Yes
Forced : Yes
Audio #2
ID : 3
Format : AC-3
Format/Info : Audio Coding 3
Mode extension : CM (complete main)
Format settings, Endianness : Big
Codec ID : A_AC3
Duration : 1h 10mn
Bit rate mode : Constant
Bit rate : 192 Kbps
Channel(s) : 2 channels
Channel positions : Front: L R
Sampling rate : 48.0 KHz
Bit depth : 16 bits
Compression mode : Lossy
Stream size : 96.9 MiB (9%)
Language : English
Default : No
Forced : No
Text
ID : 4
Format : ASS
Codec ID : S_TEXT/ASS
Codec ID/Info : Advanced Sub Station Alpha
Compression mode : Lossless
Language : Russian
Default : Yes
Forced : Yes
Несмотря на всемирную славу, Тосканини никогда не давал интервью и не публиковал мемуары.
Он не знал, что его сын Вальтер записал на плёнку некоторые их беседы.
Фильм основан на этих записях.
[teatrix.ru].t6519.torrent 
Торрент: Зарегистрирован [ 2015-10-10 17:10 ] · A8D54D96482F2F9B4CA6B86D9A97415459D37C85

Скачать .torrent

Скачать

11 KB

Статус: проверено
Скачан: 0 раз
Размер: 1.03 GB
terms.php



Быстрый ответ

Имя:

      
Для отправки сообщений необходимо включить JavaScript
Показать сообщения:    

Текущее время: 11-Дек 11:06

Часовой пояс: UTC + 3


Вы можете начинать темы
Вы можете отвечать на сообщения
Вы не можете редактировать свои сообщения
Вы не можете удалять свои сообщения
Вы не можете голосовать в опросах
Вы не можете прикреплять файлы к сообщениям
Вы можете скачивать файлы