Franz von Suppe, Franz Lehar, Carl Zeller, Johann Straus, Emmerich Kalman, Jacques Offenbach - Вечер классической оперетты [1986 г., концерт, TVRip]


Статистика раздачи [Обновить пиров]
Размер:  1.37 GB   |    Зарегистрирован:  1 год 1 месяц   |    Скачан:  0 раз

Полного источника не было: Никогда

 
   
 
 
 

[Цитировать]

Вечер классической оперетты .
.

Памяти великой певицы - Елены Васильевны Образцовой.
(7 июля 1939, Ленинград - 12 января 2015, Лейпциг)

Большой зал Московской консерватории.
Год выпуска: 1986.
Жанр: концерт.
Продолжительность: 01:50:48.
Исполнители: народная артистка СССР
Елена Образцова
, Игорь Морозов.
Симфонический оркестр Государственного Академического Большого театра СССР.
Дирижер:
народный артист РСФСР Альгис Жюрайтис.
Академический Большой хор Всесоюзного радио и Центрального телевидения.
Главный хормейстер:
народная артистка РСФСР Людмила Ермакова.
Описание:
В концерте прозвучали фрагменты из классических оперетт.

В программе

01. Увертюра к оперетте "Прекрасная Галатея" (Франц фон Зуппе) (исполняет оркестр),
02. Два дуэта Анжель и Рене из оперетты "Граф Люксембург" (Ференц Легар) (исполняют Елена Образцова и Игорь Морозов),
03. Песня Джудитты из оперетты "Джудитта" (Ференц Легар) (исполняет Елена Образцова),
04. Песня Мартина из оперетты "Мартин-рудокоп" (Карл Целлер) (исполняет Елена Образцова),
05. Вступительный хор из оперетты "Мартин-рудокоп" (Карл Целлер) (исполняет хор),
06. Дуэт Ганны и Данило из оперетты "Веселая вдова" (Ференц Легар) (исполняют Елена Образцова и Игорь Морозов),
07. Сцена и песня Ганны из оперетты "Веселая вдова" (Ференц Легар) (исполняет Елена Образцова),
08. Увертюра к оперетте "Летучая мышь" (Иоганн Штраус) (исполняет оркестр),
09. Куплеты Баринкая из оперетты "Цыганский барон" (Иоганн Штраус) (исполняет Игорь Морозов),
10. Дуэт Сафи и Баринкая из оперетты "Цыганский барон" (Иоганн Штраус) (исполняют Елена Образцова и Игорь Морозов),
11. Дуэт Графини и Графа из оперетты "Венская кровь" (Иоганн Штраус) (исполняют Елена Образцова и Игорь Морозов),
12. Песенка Адама из оперетты "Продавец птиц" (Карл Целлер) (исполняет Елена Образцова),
13. Песенка Бони из оперетты "Сильва" (Имре Кальман) (исполняет Игорь Морозов),
14. Дуэт Сильвы и Эдвина из оперетты "Сильва" (Имре Кальман) (исполняют Елена Образцова и Игорь Морозов),
15. Дуэт Стасси и Бони из оперетты "Сильва" (Имре Кальман) (исполняют Елена Образцова и Игорь Морозов),
16. Ариетта Периколы из оперетты "Перикола" (Жак Оффенбах) (исполняет Елена Образцова),
17. Песенка из оперетты "Веселая вдова" (Ференц Легар) (исполняет Елена Образцова).
Дополнительная информация:
Страна: СССР .
Релиз
Качество видео:...TVRip
Формат:.................AVI
Видео:..688x528 (1.30:1), 25 fps, XviD MPEG-4 ~1626 kbps avg, 0.18 bit/pixel
Аудио:..48 kHz, MPEG Layer 3, 2 ch, ~128.00 kbps avg

Отчет MI

Общее
Полное имя : Vecher.klassicheskoi.operetty.1986.XviD.TVRip.fenixclub.avi
Формат : AVI
Формат/Информация : Audio Video Interleave
Размер файла : 1,37 Гбайт
Продолжительность : 1 ч. 50 м.
Общий поток : 1765 Кбит/сек
Программа кодирования : VirtualDubModRus 1.5.10.2 (build 2542/release)
Библиотека кодирования : VirtualDub build 32842/release
Видео
Идентификатор : 0
Формат : MPEG-4 Visual
Профиль формата : Advanced Simple@L5
Параметр BVOP формата : 2
Параметр QPel формата : Нет
Параметр GMC формата : Без точки перехода
Параметр матрицы формата : Default (H.263)
Режим смешивания : Сжатый битовый поток
Идентификатор кодека : XVID
Идентификатор кодека/Подсказка : XviD
Продолжительность : 1 ч. 50 м.
Битрейт : 1627 Кбит/сек
Ширина : 688 пикселей
Высота : 528 пикселей
Соотношение сторон : 4:3
Частота кадров : 25,000 кадров/сек
Цветовое пространство : YUV
Субдискретизация насыщенности : 4:2:0
Битовая глубина : 8 бит
Тип развёртки : Прогрессивная
Метод сжатия : С потерями
Бит/(Пиксели*Кадры) : 0.179
Размер потока : 1,26 Гбайт (92%)
Библиотека кодирования : XviD 1.2.1 (UTC 2008-12-04)
Аудио
Идентификатор : 1
Формат : MPEG Audio
Версия формата : Version 1
Профиль формата : Layer 3
Режим : Joint stereo
Расширение режима : MS Stereo
Идентификатор кодека : 55
Идентификатор кодека/Подсказка : MP3
Продолжительность : 1 ч. 50 м.
Вид битрейта : Постоянный
Битрейт : 128 Кбит/сек
Каналы : 2 канала
Частота : 48,0 КГц
Метод сжатия : С потерями
Размер потока : 101 Мбайт (7%)
Выравнивание : Разделение по промежуткам
Продолжительность промежутка : 40 мс. (1,00 видеокадр)
Время предзагрузки промежутка : 500 мс.
Библиотека кодирования : LAME3.98ЄЄЄЄЄЄЄЄЄЄЄЄ

Скриншоты

Альтернативный хост

[teatrix.ru].t6522.torrent 
Торрент: Зарегистрирован [ 2015-10-10 17:10 ] · 9E55D5EDCF9C31688D3F2C9356AAE9CC5C97C218

Скачать .torrent

Скачать

14 KB

Статус: проверено
Скачан: 0 раз
Размер: 1.37 GB
terms.php



Быстрый ответ

Имя:

      
Для отправки сообщений необходимо включить JavaScript
Показать сообщения:    

Текущее время: 08-Дек 17:16

Часовой пояс: UTC + 3


Вы можете начинать темы
Вы можете отвечать на сообщения
Вы не можете редактировать свои сообщения
Вы не можете удалять свои сообщения
Вы не можете голосовать в опросах
Вы не можете прикреплять файлы к сообщениям
Вы можете скачивать файлы