Елена Образцова исполняет романсы и песни Георгия Свиридова [1977 г., Фильм-концерт, TVRip]


Статистика раздачи [Обновить пиров]
Размер:  702 MB   |    Зарегистрирован:  1 год 1 месяц   |    Скачан:  0 раз

Полного источника не было: Никогда

 
   
 
 
 

[Цитировать]

Елена Образцова исполняет романсы и песни Георгия Свиридова .
.

Памяти великой певицы - Елены Васильевны Образцовой.
(7 июля 1939, Ленинград - 12 января 2015, Лейпциг)

Большой зал Ленинградской консерватории.
Год выпуска: 1977.
Жанр: Фильм-концерт.
Продолжительность: 01:15:26.
Исполнитель: народная артистка СССР
Елена Образцова
.
Вступительное слово: народный артист СССР Иннокентий Смоктуновский.
Партия фортепиано: народный артист СССР Георгий Свиридов.
Описание:
Елена Образцова исполняет романсы и песни Георгия Свиридова.

В программе

01. "Роняет лес багряный свой убор" (слова Александра Пушкина),
02. "Зимняя дорога" (слова Александра Пушкина),
03. "Предчувствие" (слова Александра Пушкина),
04. "Подъезжая под Ижоры" (слова Александра Пушкина),
05. "В Нижнем Новгороде" (слова Бориса Корнилова),
06. "Слеза" (слова народные),
07. "Как прощались, страстно клялись" (слова Александра Блока),
08. "Флюгер" (слова Александра Блока),
09. "За горами, лесами" (слова Александра Блока),
10. "Утро в Москве" (слова Александра Блока),
11. "Русская песня" (слова народные),
12. "Осенью" (слова Михаила Исаковского),
13. "Не мани меня ты, воля" (слова Александра Блока),
14. "Невеста" (слова Александра Блока),
15. "Песня под тальянку" (слова Сергея Есенина),
16. "Березка" (слова Сергея Есенина),
17. "В сердце светит Русь" (слова Сергея Есенина),
18. "Изгнанник" (слова Аветика Исаакяна, перевод Александра Блока),
19. "Русская девчонка" (слова Александра Прокофьева),
20. "Русская песня" (слова народные).
Дополнительная информация:
Страна: СССР .
Релиз
Качество видео:...TVRip
Формат:.................AVI
Видео:..640x480 (1.33:1), 25 fps, XviD MPEG-4 ~1162 kbps avg, 0.15 bit/pixel
Аудио:..44.100 kHz, MPEG Layer 3, 2 ch, ~128.00 kbps avg

Отчет MI

Общее
Полное имя : Obrazcova.Sviridov.1977.XviD.TVRip.fenixclub.avi
Формат : AVI
Формат/Информация : Audio Video Interleave
Размер файла : 702 Мбайт
Продолжительность : 1 ч. 15 м.
Общий поток : 1301 Кбит/сек
Программа кодирования : VirtualDubModRus 1.5.10.2 (build 2542/release)
Библиотека кодирования : VirtualDub build 32842/release
Видео
Идентификатор : 0
Формат : MPEG-4 Visual
Профиль формата : Advanced Simple@L5
Параметр BVOP формата : 2
Параметр QPel формата : Нет
Параметр GMC формата : Без точки перехода
Параметр матрицы формата : Default (H.263)
Режим смешивания : Сжатый битовый поток
Идентификатор кодека : XVID
Идентификатор кодека/Подсказка : XviD
Продолжительность : 1 ч. 15 м.
Битрейт : 1163 Кбит/сек
Ширина : 640 пикселей
Высота : 480 пикселей
Соотношение сторон : 4:3
Частота кадров : 25,000 кадров/сек
Цветовое пространство : YUV
Субдискретизация насыщенности : 4:2:0
Битовая глубина : 8 бит
Тип развёртки : Прогрессивная
Метод сжатия : С потерями
Бит/(Пиксели*Кадры) : 0.151
Размер потока : 627 Мбайт (89%)
Библиотека кодирования : XviD 1.2.1 (UTC 2008-12-04)
Аудио
Идентификатор : 1
Формат : MPEG Audio
Версия формата : Version 1
Профиль формата : Layer 3
Режим : Joint stereo
Расширение режима : MS Stereo
Идентификатор кодека : 55
Идентификатор кодека/Подсказка : MP3
Продолжительность : 1 ч. 15 м.
Вид битрейта : Постоянный
Битрейт : 128 Кбит/сек
Каналы : 2 канала
Частота : 44,1 КГц
Метод сжатия : С потерями
Размер потока : 69,1 Мбайт (10%)
Выравнивание : Разделение по промежуткам
Продолжительность промежутка : 40 мс. (1,00 видеокадр)
Время предзагрузки промежутка : 500 мс.

Скриншоты

Альтернативный хост

[teatrix.ru].t6523.torrent 
Торрент: Зарегистрирован [ 2015-10-10 17:14 ] · 0B886AFC91EC6FE8A18578E775C15AFB39EF2DFE

Скачать .torrent

Скачать

14 KB

Статус: проверено
Скачан: 0 раз
Размер: 702 MB
terms.php



Быстрый ответ

Имя:

      
Для отправки сообщений необходимо включить JavaScript
Показать сообщения:    

Текущее время: 05-Дек 19:39

Часовой пояс: UTC + 3


Вы можете начинать темы
Вы можете отвечать на сообщения
Вы не можете редактировать свои сообщения
Вы не можете удалять свои сообщения
Вы не можете голосовать в опросах
Вы не можете прикреплять файлы к сообщениям
Вы можете скачивать файлы