Franz Liszt, Georges Bizet, Петр Булахов, Михаил Глинка, Модест Мусоргский, Giuseppe Verdi, Милий Балакирев, Giulio Caccini, Николай Римский-Корсаков - Незабываемые голоса. Ирина Архипова [2015 г., Фильм-концерт, SATRip]


Статистика раздачи [Обновить пиров]
Размер:  571 MB   |    Зарегистрирован:  1 год 1 месяц   |    Скачан:  0 раз

Полного источника не было: Никогда

 
   
 
 
 

[Цитировать]

Незабываемые голоса. Ирина Архипова К 90-летию великой русской певицы - Ирины Константиновны Архиповой
(2.01.1925 - 11.02.2010)

Концертный зал им. П.Чайковского.
Год выпуска: 2015.
Жанр: Фильм-концерт.
Продолжительность: 00:38:40.
Исполнитель: Ирина Архипова.
Описание:
В концерт входят записи разных лет. В исполнении выдающейся оперной певицы Ирины Архиповой звучат песни, сцены из опер русских и зарубежных композиторов.

Трек-лист

01. Ф. Лист,Ф. Фрейлиграт, русский текст В. Коломийцева. Канцона.
(Ноктюрн "Грёзы любви".) Ансамбль скрипачей Большого театра
под управлением Ю. Реентовича),
02. Ж. Бизе. Хабанера из оперы "Кармен" (спектакль Большого театра),
03. П. Булахов, А. Толстой. "Колокольчики мои",
04. М. Глинка, Н. Кукольник. "Колыбельная" ("Декабрьские вечера", партия фортепиано - Илья Ивари),
05. М. Мусоргский. Сцена гадания Марфы из оперы "Хованщина" (спектакль Большого театра),
06. Д. Верди. Сцена суда из оперы "Аида" (спектакль Большого театра),
07. М. Балакирев, А. Кольцов. "Обойми, поцелуй" (Большой зал консерватории,
партия рояля - Евгений Светланов, страницы переворачивает Анна Чехова),
08. Д. Каччини. "Аве Мария" (Большой зал консерватории, Академический Большой хор Гостелерадио,
орган - Олег Янченко, труба - Тимофей Докшицер),
09. Н. Римский-Корсаков. Ария Любавы из оперы "Садко" (спектакль Большого театра),
10. М. Мусоргский. Дуэт Самозванца и Марины Мнишек из оперы "Борис Годунов". Самозванец - Владислав Пьявко.
Дополнительная информация:
Страна: Россия .
Выпущено: © ГТРК "Культура".

Трансляция ГТРК "Культура" в 13:40 02.01.2015 г.
Релиз
Рип lesik689 .
Качество видео:...SATRip
Формат:.................AVI
Видео:..688x512 (1.34:1), 25 fps, XviD MPEG-4 ~1799 kbps avg, 0.20 bit/pixel
Аудио:..48 kHz, AC3 Dolby Digital, 2/0 (L,R) ch, ~256 kbps

Отчет MI

Общее
Полное имя : Nezabyvajemyje.golosa.Irina.Arkhipova.2015.XviD.SATRip.fenixclub.avi
Формат : AVI
Формат/Информация : Audio Video Interleave
Размер файла : 571 Мбайт
Продолжительность : 38 м.
Общий поток : 2066 Кбит/сек
Программа кодирования : VirtualDubMod 1.5.10.2 (build 2542/release)
Библиотека кодирования : VirtualDubMod build 2542/release
Видео
Идентификатор : 0
Формат : MPEG-4 Visual
Профиль формата : Advanced Simple@L5
Параметр BVOP формата : 2
Параметр QPel формата : Нет
Параметр GMC формата : Без точки перехода
Параметр матрицы формата : Default (MPEG)
Режим смешивания : Сжатый битовый поток
Идентификатор кодека : XVID
Идентификатор кодека/Подсказка : XviD
Продолжительность : 38 м.
Битрейт : 1800 Кбит/сек
Ширина : 688 пикселей
Высота : 512 пикселей
Соотношение сторон : 5:4
Соотношение сторон в оригинале : 16:9
Частота кадров : 25,000 кадров/сек
Цветовое пространство : YUV
Субдискретизация насыщенности : 4:2:0
Битовая глубина : 8 бит
Тип развёртки : Прогрессивная
Метод сжатия : С потерями
Бит/(Пиксели*Кадры) : 0.204
Размер потока : 498 Мбайт (87%)
Библиотека кодирования : XviD 64
Аудио
Идентификатор : 1
Формат : AC-3
Формат/Информация : Audio Coding 3
Расширение режима : CM (complete main)
Параметр Endianness формата : Big
Идентификатор кодека : 2000
Продолжительность : 38 м.
Вид битрейта : Постоянный
Битрейт : 256 Кбит/сек
Каналы : 2 канала
Расположение каналов : Front: L R
Частота : 48,0 КГц
Битовая глубина : 16 бит
Метод сжатия : С потерями
Размер потока : 70,8 Мбайт (12%)
Выравнивание : Соединение по промежуткам
Продолжительность промежутка : 40 мс. (1,00 видеокадр)
Время предзагрузки промежутка : 512 мс.

Скриншоты


Альтернативный хост


[teatrix.ru].t6525.torrent 
Торрент: Зарегистрирован [ 2015-10-10 17:14 ] · 286E1E5005717C896C00BAB563471750A9F4DF6C

Скачать .torrent

Скачать

12 KB

Статус: проверено
Скачан: 0 раз
Размер: 571 MB
terms.php



Быстрый ответ

Имя:

      
Для отправки сообщений необходимо включить JavaScript
Показать сообщения:    

Текущее время: 05-Дек 05:30

Часовой пояс: UTC + 3


Вы можете начинать темы
Вы можете отвечать на сообщения
Вы не можете редактировать свои сообщения
Вы не можете удалять свои сообщения
Вы не можете голосовать в опросах
Вы не можете прикреплять файлы к сообщениям
Вы можете скачивать файлы