Алексей Варламов, Николай Титов, Алексей Верстовский, Оттон Дютш - Ирина Архипова. Романсы русских композиторов [1988 г., Фильм-концерт, TVRip]


Статистика раздачи [Обновить пиров]
Размер:  330 MB   |    Зарегистрирован:  1 год 1 месяц   |    Скачан:  0 раз

Полного источника не было: Никогда

 
   
 
 
 

[Цитировать]

Ирина Архипова. Романсы русских композиторов Концертный зал им. П.Чайковского.
Год выпуска: 1988.
Жанр: Фильм-концерт.
Продолжительность: 00:34:26.
Исполнитель: Ирина Архипова.
Партия фортепиано: Игорь Гусельников.
Партия виолончели: Владимир Тонха.
Описание:
Вокальный вечер солистки Большого театра, народной артистки СССР Ирины Архиповой. В программе романсы русских композиторов.

Трек-лист

01. "Красный сарафан" (А.Варламов - Н.Цыганов),
02. "Не отходи от меня" (А.Варламов - А.Фет),
03. "Горные вершины" (А.Варламов - М.Лермонтов),
04. "Благодарность" (А.Варламов - М.Лермонтов),
05. "Нет, не тебя так пылко я люблю" (Н.Титов - М.Лермонтов),
06. "Колокольчик" (А.Верстовский),
07. "Не скажу никому" (О.Дютш – А.Кольцов),
08. "Цыганская песня" (А.Верстовский - А.Пушкин).
Дополнительная информация:
Страна: СССР .
Релиз
Качество видео:...TVRip
Формат:.................AVI
Видео:..688x512 (1.34:1), 25 fps, XviD build 50 ~1203 kbps avg, 0.14 bit/pixel
Аудио:..44.100 kHz, MPEG Layer 3, 2 ch, ~128.00 kbps avg

Отчет MI

Общее
Полное имя : Irina.Arhipova.Romansy.russkih.kompozitorov.1988.XviD.TVRip.fenixclub.avi
Формат : AVI
Формат/Информация : Audio Video Interleave
Размер файла : 330 Мбайт
Продолжительность : 34 м.
Общий поток : 1341 Кбит/сек
Программа кодирования : VirtualDubMod 1.5.10.3 | www.virtualdub-fr.org || (build 2550/release)
Библиотека кодирования : VirtualDubMod build 2550/release
Видео
Идентификатор : 0
Формат : MPEG-4 Visual
Профиль формата : Advanced Simple@L5
Параметр BVOP формата : 1
Параметр QPel формата : Нет
Параметр GMC формата : Без точки перехода
Параметр матрицы формата : Default (MPEG)
Идентификатор кодека : DX50
Идентификатор кодека/Подсказка : DivX 5
Продолжительность : 34 м.
Битрейт : 1203 Кбит/сек
Ширина : 688 пикселей
Высота : 512 пикселей
Соотношение сторон : 4:3
Частота кадров : 25,000 кадров/сек
Цветовое пространство : YUV
Субдискретизация насыщенности : 4:2:0
Битовая глубина : 8 бит
Тип развёртки : Прогрессивная
Метод сжатия : С потерями
Бит/(Пиксели*Кадры) : 0.137
Размер потока : 296 Мбайт (90%)
Библиотека кодирования : XviD 1.2.1 (UTC 2008-12-04)
Аудио
Идентификатор : 1
Формат : MPEG Audio
Версия формата : Version 1
Профиль формата : Layer 3
Идентификатор кодека : 55
Идентификатор кодека/Подсказка : MP3
Продолжительность : 34 м.
Вид битрейта : Постоянный
Битрейт : 128 Кбит/сек
Каналы : 2 канала
Частота : 44,1 КГц
Метод сжатия : С потерями
Размер потока : 31,5 Мбайт (10%)
Выравнивание : Разделение по промежуткам
Продолжительность промежутка : 40 мс. (1,00 видеокадр)
Время предзагрузки промежутка : 500 мс.
Библиотека кодирования : LAME3.99r
Настройки программы : -m s -V 4 -q 2 -lowpass 17 -b 128

Скриншоты

Альтернативный хост

[teatrix.ru].t6526.torrent 
Торрент: Зарегистрирован [ 2015-10-10 17:10 ] · FD92F13F2861B2A3DFD42B0D9E02D30EB3590F98

Скачать .torrent

Скачать

13 KB

Статус: проверено
Скачан: 0 раз
Размер: 330 MB
terms.php



Быстрый ответ

Имя:

      
Для отправки сообщений необходимо включить JavaScript
Показать сообщения:    

Текущее время: 03-Дек 14:38

Часовой пояс: UTC + 3


Вы можете начинать темы
Вы можете отвечать на сообщения
Вы не можете редактировать свои сообщения
Вы не можете удалять свои сообщения
Вы не можете голосовать в опросах
Вы не можете прикреплять файлы к сообщениям
Вы можете скачивать файлы