Alessandro Stradella, Antonio-Francesco Tenaglia, Luigi Cherubini, Georges Bizet, Edvard Grieg, Giuseppe Giordani, George Handel, Claudio Monteverdi - Концерт Ирины Архиповой [1977 г., Фильм-концерт, SATRip]


Статистика раздачи [Обновить пиров]
Размер:  615 MB   |    Зарегистрирован:  1 год 1 месяц   |    Скачан:  0 раз

Полного источника не было: Никогда

 
   
 
 
 

[Цитировать]

Концерт Ирины Архиповой Концертный зал им. П.Чайковского.
Год выпуска: 1977.
Жанр: Фильм-концерт.
Продолжительность: 00:49:35.
Ведущая: Анна Чехова.
Исполнитель: Ирина Архипова.
Партия органа: Олег Янченко.
Описание:
Концерт солистки Большого театра, народной артистки СССР Ирины Архиповой.

Трек-лист

01. А.Страделла "Pieta Signore",
02. А.Теналья "Strofette",
03. Л.Керубини "Ave Maria",
04. Ж.Бизе "Agnus Dei",
05. Э.Григ " Solveig's Song"
06. Дж. Джордани "Caro Mio Ben",
07. Г.Гендель "Dignare",
08. К.Монтеверди "Плач Ариадны".
Дополнительная информация:
Страна: СССР .
Релиз
Качество видео:...SATRip
Формат:.................AVI
Видео:..688x528 (1.30:1), 25 fps, XviD MPEG-4 ~1576 kbps avg, 0.17 bit/pixel
Аудио:..44.100 kHz, MPEG Layer 3, 2 ch, ~128.00 kbps avg

Отчет MI

Общее
Полное имя : Koncert.Iriny.Arhipovoj.1977.XviD.SATRip.fenixclub.avi
Формат : AVI
Формат/Информация : Audio Video Interleave
Размер файла : 615 Мбайт
Продолжительность : 49 м.
Общий поток : 1734 Кбит/сек
Видео
Идентификатор : 0
Формат : MPEG-4 Visual
Профиль формата : Advanced Simple@L5
Параметр BVOP формата : 2
Параметр QPel формата : Нет
Параметр GMC формата : Без точки перехода
Параметр матрицы формата : Default (H.263)
Идентификатор кодека : XVID
Идентификатор кодека/Подсказка : XviD
Продолжительность : 49 м.
Битрейт : 1596 Кбит/сек
Ширина : 688 пикселей
Высота : 528 пикселей
Соотношение сторон : 4:3
Частота кадров : 25,000 кадров/сек
Цветовое пространство : YUV
Субдискретизация насыщенности : 4:2:0
Битовая глубина : 8 бит
Тип развёртки : Прогрессивная
Метод сжатия : С потерями
Бит/(Пиксели*Кадры) : 0.176
Размер потока : 566 Мбайт (92%)
Библиотека кодирования : XviD 1.2.1 (UTC 2008-12-04)
Аудио
Идентификатор : 1
Формат : MPEG Audio
Версия формата : Version 1
Профиль формата : Layer 3
Режим : Joint stereo
Расширение режима : MS Stereo
Идентификатор кодека : 55
Идентификатор кодека/Подсказка : MP3
Продолжительность : 49 м.
Продолжительность оригинала : 49 м.
Вид битрейта : Постоянный
Битрейт : 128 Кбит/сек
Каналы : 2 канала
Частота : 44,1 КГц
Метод сжатия : С потерями
Размер потока : 45,4 Мбайт (7%)
Выравнивание : Соединение по промежуткам
Продолжительность промежутка : 40 мс. (1,00 видеокадр)
Библиотека кодирования : LAME3.98ЄЄЄЄЄЄЄЄЄЄЄЄ

Скриншоты

Альтернативный хост

[teatrix.ru].t6527.torrent 
Торрент: Зарегистрирован [ 2015-10-10 17:10 ] · 7CF163D41DD4A4B8FCEC39AC7967FA5EC2B5966B

Скачать .torrent

Скачать

13 KB

Статус: проверено
Скачан: 0 раз
Размер: 615 MB
terms.php



Быстрый ответ

Имя:

      
Для отправки сообщений необходимо включить JavaScript
Показать сообщения:    

Текущее время: 06-Дек 22:56

Часовой пояс: UTC + 3


Вы можете начинать темы
Вы можете отвечать на сообщения
Вы не можете редактировать свои сообщения
Вы не можете удалять свои сообщения
Вы не можете голосовать в опросах
Вы не можете прикреплять файлы к сообщениям
Вы можете скачивать файлы