Скрипка Леонида Когана [1975, Документальный, DVB-AVC]


Статистика раздачи [Обновить пиров]
Размер:  1.31 GB   |    Зарегистрирован:  1 год 3 месяца   |    Скачан:  0 раз

Полного источника не было: Никогда

 
   
 
 
 

[Цитировать]

Скрипка Леонида Когана
Год выпуска: 1975
Страна-производитель: СССР
Жанр: Документальный
Продолжительность: 01:06:43
Язык: русский
Режиссер: Галина Мячина
Исполнители:
Леонид Коган
ГАСО СССР под управлением Арнольда Каца
Нина Коган (фортепиано)
Павел Коган (скрипка).
Описание: В фильме выдающийся советский скрипач, народный артист СССР Леонид Коган (1924 - 1982) рассказывает о начале творческого пути, о практических вопросах концертной и педагогической работы, о своем взгляде на творческое наследие композиторов различных эпох.
Использованы фото- и видеоматериалы из личного архива артиста, концертные съемки выступлений 1960 - 1970 гг.
Качество видео: DVB-AVC (РТРС-1)
Формат/Контейнер: MKV
Видео кодек: H.264
Аудио кодек: MP2
Видео поток: 720x576 (AR 785:576) 50fps ~2500 Kbps.
Аудио поток: 48000Hz 2 ch mono 192 Kbps

MediaInfo

Format : MatroskaFormat version : Version 4 / Version 2File size : 1.31 GiBDuration : 1h 6mnOverall bit rate : 2 810 KbpsEncoded date : UTC 2014-11-10 20:58:57Writing application : mkvmerge v6.1.0 ('Old Devil') built on Mar 4 2013 09:10:42Writing library : libebml v1.3.0 + libmatroska v1.4.0
VideoID : 1Format : AVCFormat/Info : Advanced Video CodecFormat profile : Main@L3.0Format settings, CABAC : YesFormat settings, ReFrames : 3 framesCodec ID : V_MPEG4/ISO/AVCDuration : 1h 6mnBit rate : 2 562 KbpsWidth : 720 pixelsHeight : 576 pixelsDisplay aspect ratio : 4:3Original display aspect ratio : 4:3Frame rate mode : ConstantFrame rate : 25.000 fpsStandard : ComponentColor space : YUVChroma subsampling : 4:2:0Bit depth : 8 bitsScan type : InterlacedBits/(Pixel*Frame) : 0.247Stream size : 1.19 GiB (91%)Default : YesForced : NoColor primaries : BT.601 PALTransfer characteristics : BT.470 System B, BT.470 System GMatrix coefficients : BT.601
AudioID : 2Format : MPEG AudioFormat version : Version 1Format profile : Layer 2Codec ID : A_MPEG/L2Codec ID/Hint : MP2Duration : 1h 6mnBit rate mode : ConstantBit rate : 192 KbpsChannel(s) : 2 channelsSampling rate : 48.0 KHzCompression mode : LossyDelay relative to video : 11msStream size : 91.6 MiB (7%)Default : YesForced : No

Скриншоты

[teatrix.ru].t6531.torrent 
Торрент: Зарегистрирован [ 2015-10-10 17:10 ] · C77DC5A44F80937CA458F9328B0A9FE2CACC74E5

Скачать .torrent

Скачать

14 KB

Статус: проверено
Скачан: 0 раз
Размер: 1.31 GB
terms.php



Быстрый ответ

Имя:

      
Для отправки сообщений необходимо включить JavaScript
Показать сообщения:    

Текущее время: 20-Янв 14:57

Часовой пояс: UTC + 3


Вы можете начинать темы
Вы можете отвечать на сообщения
Вы не можете редактировать свои сообщения
Вы не можете удалять свои сообщения
Вы не можете голосовать в опросах
Вы не можете прикреплять файлы к сообщениям
Вы можете скачивать файлы