Verbier Festival 2014 - Schubert - D.850; Скрябин - Sonata-Fantasy No.2, Op.8; Bach - BWV147; Chopin Polonaise No.6 (Evgeny Kissin - piano)[2014, Concert, HDTVRip, 720p]


Статистика раздачи [Обновить пиров]
Размер:  2.04 GB   |    Зарегистрирован:  1 год 1 месяц   |    Скачан:  0 раз

Полного источника не было: Никогда

 
   
 
 
 

[Цитировать]

Verbier Festival 2014 - Schubert - D.850; Скрябин - Sonata-Fantasy No.2, Op.8; Bach - BWV147; Chopin Polonaise No.6 ;(Evgeny Kissin - piano)
Внимание! Торент файл обновлен 24.10.14, теперь раздается полная версия концерта.
Год выпуска: 2014
Лейбл: MUSEEC/medici.tv
Страна-производитель: (Verbier, Switzerland)
Жанр: Concert
Продолжительность: 1 ч. 36 м.
Исполнители:
Evgeny Kissin - piano
Треклист:
Schubert (1797 - 1828)
Piano Sonata in D Major, D. 850
I. Allegro vivace in D major
II. Con moto in A major
III. Scherzo: Allegro vivace in D major
IV. Rondo: Allegro moderato in D major
Александр Николаевич Скрябин (1871 - 1915)
Sonata-Fantasy No.2 in G-sharp Minor, Op. 19
1. Andante
2. Allegro Vivace
Александр Николаевич Скрябин (1871 - 1915)
Twelve Etudes, Op.8
No. 2 in F-sharp minor – A capriccio, con forza
No. 4 in B major – Piacevole
No. 5 in E major – Brioso
No. 8 in A-flat major – Lento
No. 9 in G-sharp minor – Alla ballatta
No. 11 in B-flat minor – Andante cantabile
No. 12 in D-sharp minor – Patetico
Johann Sebastian Bach (1685 — 1750)
Herz und Mund und Tat und Leben, BWV 147
Frederic Chopin (1810 - 1849)
Polonaise No. 6 in A-flat Major, Op.53 "Heroic"
Описание:
He is without question one of the most beloved pianists of our times; the young Evgeny Kissin is back at the Verbier Festival for a Schubert recital. Don't miss the concert webcast in delayed streaming on medici.tv!
His perfect virtuosity and the lyricism of his interpretations have made him one of the most beloved artists of his generation. A sought-after artist throughout the world, Evgeny Kissin has been loyal to the Verbier Festival for years.
This year he performs Schubert's tenth sonata, also known as Piano Sonata in D major, D. 850.
This concert will be broadcast in delayed streaming on medici.tv. The broadcast date will be revealed soon.
Качество видео: HDTVRip
Формат/Контейнер: FLV
Видео кодек: H.264
Аудио кодек: AAC
Видео поток: 1280x720, 2850 Кбит/сек, 25,000 кадров/сек, Прогрессивная
Аудио поток: AAC, 157 Кбит/сек, 48,0 КГц, 2 канала

Скриншоты

MediaInfo

Общее
Полное имя : C:\Users\Администратор\Videos\Evgeny Kissin plays Schubert and Scriabin - Medici.FLV
Формат : Flash Video
Размер файла : 2,04 Гбайт
Продолжительность : 1 ч. 36 м.
Общий поток : 3018 Кбит/сек
Видео
Формат : AVC
Формат/Информация : Advanced Video Codec
Профиль формата : Main@L3.1
Параметр CABAC формата : Да
Параметр ReFrames формата : 3 кадра
Идентификатор кодека : 7
Продолжительность : 1 ч. 36 м.
Вид битрейта : Постоянный
Битрейт : 2850 Кбит/сек
Ширина : 1280 пикселей
Высота : 720 пикселей
Соотношение сторон : 16:9
Режим частоты кадров : Постоянный
Частота кадров : 25,000 кадров/сек
Цветовое пространство : YUV
Субдискретизация насыщенности : 4:2:0
Битовая глубина : 8 бит
Тип развёртки : Прогрессивная
Бит/(Пиксели*Кадры) : 0.124
Размер потока : 1,92 Гбайт (94%)
Аудио
Формат : AAC
Формат/Информация : Advanced Audio Codec
Профиль формата : LC
Идентификатор кодека : 10
Продолжительность : 1 ч. 36 м.
Битрейт : 157 Кбит/сек
Каналы : 2 канала
Расположение каналов : Front: L R
Частота : 48,0 КГц
Метод сжатия : С потерями
Размер потока : 109 Мбайт (5%)
[teatrix.ru].t6532.torrent 
Торрент: Зарегистрирован [ 2015-10-10 17:14 ] · 45EBAD420E25144F28AC3BAE162E3D3D18E71BB0

Скачать .torrent

Скачать

11 KB

Статус: проверено
Скачан: 0 раз
Размер: 2.04 GB
terms.php



Быстрый ответ

Имя:

      
Для отправки сообщений необходимо включить JavaScript
Показать сообщения:    

Текущее время: 08-Дек 12:52

Часовой пояс: UTC + 3


Вы можете начинать темы
Вы можете отвечать на сообщения
Вы не можете редактировать свои сообщения
Вы не можете удалять свои сообщения
Вы не можете голосовать в опросах
Вы не можете прикреплять файлы к сообщениям
Вы можете скачивать файлы