Aneccy Classic Festival 2014 - Rossini; Brahms - Op.15; Чайковский - Op.37a; Elgar - Enigma Variations, Op.36, Op.12; Стравинский (Denis Matsuev - piano, St Petersburg Philharmonic Orchestra, Yuri Temirkanov - conductor)[2014, Concert, HDTVRip, 720p]


Статистика раздачи [Обновить пиров]
Размер:  2.26 GB   |    Зарегистрирован:  1 год 1 месяц   |    Скачан:  1 раз

Полного источника не было: 10 часов

 
   
 
 
 

[Цитировать]

Aneccy Classic Festival 2014 - Rossini - Il Barbiere di Siviglia; Brahms - Op.15; Чайковский - Op.37a; Elgar - Enigma Variations, Op.36, Op.12; Стравинский - Pulcinella Suite (Denis Matsuev - piano, St Petersburg Philharmonic Orchestra, Yuri Temirkanov - conductor)[2014, Concert, HDTVRip, 720p]
Год выпуска: 2014
Лейбл: MUSEEC/medici.tv
Страна-производитель: Sainte-Bernadette Church (Annecy, France)
Жанр: Concert
Продолжительность: 1 ч. 47 м.
Исполнители:
Denis Matsuev - piano,
St Petersburg Philharmonic Orchestra,
Yuri Temirkanov - conductor
Треклист:
Gioachino Antonio Rossini (1792—1868)
IL BARBIERE DI SIVIGLIA (СЕВИЛЬСКИЙ ЦИРЮЛЬНИК)
Overture
Brahms (1833-1897)
Piano Concerto No. 1 in D minor, Op. 15
1. Maestoso - Poco piu moderato
2. Adagio
3. Rondo : Allegro ma non troppo - Piu animato - Tempo I
Пётр Ильич Чайковский (1840 - 1893)
The Seasons, Op. 37a
5. May, White Nights
Edward William Elgar (1857-1934)
Enigma Variations, Op. 36
Theme (Andante)
Variation I (L'istesso tempo) "C.A.E."
Variation II (Allegro) "H.D.S.-P."
Variation III (Allegretto) "R.B.T."
Variation IV (Allegro di molto) "W.M.B."
Variation V (Moderato) "R.P.A."
Variation VI (Andantino) "Ysobel"
Variation VII (Presto) "Troyte"
Variation VIII (Allegretto) "W.N."
Variation IX (Adagio) "Nimrod"
Variation X (Intermezzo : Allegretto) "Dorabella"
Variation XI (Allegro di molto) "G.R.S."
Variation XII (Andante) "B.G.N."
Variation XIII (Romanza : Moderato) "* * *"
Variation XIV (Finale : Allegro Presto) "E.D.U."
Edward William Elgar (1857-1934)
Salut d'Amour, Op. 12
Игорь Фёдорович Стравинский (1882 - 1971)
Pulcinella Suite
18. Vivo
Описание:
Denis Matsuev, Yuri Temirkanov and the St. Petersburg Philharmonic Orchestra will close the 5th edition of the Annecy Classic Music Festival broadcast live on medici.tv.
In 1998, at the age of 23, Denis Matsuev won the first prize of the prestigious International Tchaikovsky Competition in Moscow, which led him to success and boosted his career. Ever since, the pianist has been keeping on impressing his audience with virtuoso, and powerful performances. He is today once again at the side of an iconic figure of Russian music, Yuri Temirkanov.
As the music director and chief conductor of the St. Petersburg Philharmonic Orchestra, he will kick off this great evening with the explosive Overture from Rossini's Barber of Seville, 1854.
In contrast, this will be followed by Brahms’ deeply romantic Piano Concerto No. 1 in D minor, Op. 15 . Brahms composed this concerto in 1854 after his master’s suicide attempt, Schumann, who had encouraged him to play orchestral music, but Schumann never heard it, as he died during the writing. At that time, particularly due to its length, the concerto had a lacklustre success and was truly acclaimed thanks to Clara Schumann’s interpretation, the composer’s widow.
Finally, the enigmatic Enigma Variations by Edward Elgar, composed between 1898 and 1899, draws the musical portraits of his close personal connections. It should beautifully crown this 5th edition of the Annecy Classic Music Festival.
Качество видео: HDTVRip
Формат/Контейнер: FLV
Видео кодек: H.264
Аудио кодек: AAC
Видео поток: 1280x720, 2850 Кбит/сек, 25,000 кадров/сек, Прогрессивная
Аудио поток: AAC, 157 Кбит/сек, 48,0 КГц, 2 канала

Скриншоты

MediaInfo

Общее
Полное имя : C:\Users\Администратор\Music\Annecy Classic Festival\Yuri Temirkanov conducts Rossini, Brahms and Elgar – With Denis Matsuev - Medici\Yuri Temirkanov conducts Rossini, Brahms and Elgar – With Denis Matsuev - Medici.FLV
Формат : Flash Video
Размер файла : 2,26 Гбайт
Продолжительность : 1 ч. 47 м.
Общий поток : 3018 Кбит/сек
Видео
Формат : AVC
Формат/Информация : Advanced Video Codec
Профиль формата : Main@L3.1
Параметр CABAC формата : Да
Параметр ReFrames формата : 3 кадра
Идентификатор кодека : 7
Продолжительность : 1 ч. 47 м.
Вид битрейта : Постоянный
Битрейт : 2850 Кбит/сек
Ширина : 1280 пикселей
Высота : 720 пикселей
Соотношение сторон : 16:9
Режим частоты кадров : Постоянный
Частота кадров : 25,000 кадров/сек
Цветовое пространство : YUV
Субдискретизация насыщенности : 4:2:0
Битовая глубина : 8 бит
Тип развёртки : Прогрессивная
Бит/(Пиксели*Кадры) : 0.124
Размер потока : 2,14 Гбайт (94%)
Аудио
Формат : AAC
Формат/Информация : Advanced Audio Codec
Профиль формата : LC
Идентификатор кодека : 10
Продолжительность : 1 ч. 47 м.
Битрейт : 157 Кбит/сек
Каналы : 2 канала
Расположение каналов : Front: L R
Частота : 48,0 КГц
Метод сжатия : С потерями
Размер потока : 121 Мбайт (5%)
[teatrix.ru].t6533.torrent 
Торрент: Зарегистрирован [ 2015-10-10 17:14 ] · 0C924F622E3E9A474901E8B43610371F312705D6

Скачать .torrent

Скачать

12 KB

Статус: проверено
Скачан: 1 раз
Размер: 2.26 GB
terms.php



Быстрый ответ

Имя:

      
Для отправки сообщений необходимо включить JavaScript
Показать сообщения:    

Текущее время: 03-Дек 05:28

Часовой пояс: UTC + 3


Вы можете начинать темы
Вы можете отвечать на сообщения
Вы не можете редактировать свои сообщения
Вы не можете удалять свои сообщения
Вы не можете голосовать в опросах
Вы не можете прикреплять файлы к сообщениям
Вы можете скачивать файлы