Владимиру Спивакову - 70! Юбилейный концерт в ММДМ(Чайковский, Arban, Paganini, Gulda, van Ossen, Brahms, Chopin, Рубинштейн, Piazzolla, Прокофьев, Leoncavallo, Verdi, Sarasate, Шостакович, Massenet, Offenbach, Gershwin, Strauss) [2014, DVB-AVC]


Статистика раздачи [Обновить пиров]
Размер:  3.65 GB   |    Зарегистрирован:  1 год 1 месяц   |    Скачан:  0 раз

Полного источника не было: Никогда

 
   
 
 
 

[Цитировать]

Владимиру Спивакову - 70! Юбилейный концерт в ММДМ
Год выпуска: 2014
Жанр: classical
Продолжительность: 03:07:32
Исполнители: Государственный камерный оркестр «Виртуозы Москвы», Национальный филармонический оркестр России. Дирижер - Владимир Спиваков.
Солисты: Хибла Герзмава, Хуан Диего Флорес, Василий Ладюк, Дмитрий Корчак, Вадим Глузман, Денис Мацуев, Александр Романовский, Сергей Накаряков, Анастасия Кобекина, Матвей Шерлинг, Туган Сохиев.
Треклист:
I отделение - камерный оркестр «Виртуозы Москвы»
Чайковский - вальс из серенады для струнного оркестра
Арбан - Венецианский карнавал - Сергей Накаряков
Паганини - вариация для одной струны на тему оперы Россини «Моисей в Египте» - Анастасия Кобекина
Гульда - Гимн красоте
Ван Оссен - Полька дотс - Матвей Шерлинг
Брамс - Венгерский танец №2 - Лоран Корсия, Элен Мерсье
Шопен - Мазурка до-диез минор - Александр Романовский
Рубинштейн - Ночь - Владимир Спиваков, Анастасия Кобекина, Элен Мерсье
Пьяццолла - танго «Кафе 1930» - Владимир Спиваков
Прокофьев - Многолетие - «Мастера Хорового пенья»
II отделение - Национальный филармонический оркестр России
Бизе-Щедрин - Болеро и «Торреро» из «Кармен-сюиты»
Россини - кавантина Фигаро - Василий Ладюк
Бизе - дуэт Надира и Зурги из оперы «Искатели жемчуга» - Василий Ладюк, Дмитрий Корчак
Леонкавалло - Рассвет - Дмитрий Корчак
Верди - ария Виолетты - Хибла Герзмава
Сарасате - Циганские напевы - Вадим Глузман
Шостакович - Праздничная увертюна - дир. Туган Сохиев
Масне - ариозо Вертера - Хуан Диего Флорес
Оффенбах - ария Париса из оперетты «Прекрасная Елена» - Хуан Диего Флорес
Гершвин - рапсодия в стиле блюз (фрагмент) - Денис Мацуев, Андрей Иванов, Дмитрий Севастьянов
Спиричеэл «Sometimes I Feel Like a Motherless Child» - Джесси Норман, Дмитрий Прокофьев
Р. Штраус - Завтра - Джесси Норман, Владимир Спиваков
Описание: 12 сентября 2014 года Владимир Спиваков отмечает 70-летие. Свой день рождения маэстро традиционно проводит на сцене, в кругу друзей-музыкантов – корифеев мирового музыкального искусства и восходящих звезд.
Качество видео: DVB-AVC (РТРС-1)
Формат/Контейнер: MKV
Видео кодек: H.264
Аудио кодек: MP2
Видео поток: 720x576 (AR 785:576) 50fps ~2500 Kbps. Обрезка кадра средствами контейнера до AR 16:9 работает в некоторых плеерах.
Аудио поток: 48000Hz 2 ch mono 192 Kbps

MediaInfo

Format : MatroskaFormat version : Version 4 / Version 2File size : 3.65 GiBDuration : 3h 7mnOverall bit rate : 2 787 KbpsEncoded date : UTC 2014-09-13 19:20:16Writing application : mkvmerge v6.1.0 ('Old Devil') built on Mar 4 2013 09:10:42Writing library : libebml v1.3.0 + libmatroska v1.4.0
VideoID : 1Format : AVCFormat/Info : Advanced Video CodecFormat profile : Main@L3.0Format settings, CABAC : YesFormat settings, ReFrames : 3 framesCodec ID : V_MPEG4/ISO/AVCDuration : 3h 7mnBit rate : 2 540 KbpsWidth : 720 pixelsHeight : 576 pixelsDisplay aspect ratio : 4:3Original display aspect ratio : 4:3Frame rate mode : ConstantFrame rate : 25.000 fpsStandard : ComponentColor space : YUVChroma subsampling : 4:2:0Bit depth : 8 bitsScan type : InterlacedBits/(Pixel*Frame) : 0.245Stream size : 3.33 GiB (91%)Default : YesForced : NoColor primaries : BT.601 PALTransfer characteristics : BT.470 System B, BT.470 System GMatrix coefficients : BT.601
AudioID : 2Format : MPEG AudioFormat version : Version 1Format profile : Layer 2Codec ID : A_MPEG/L2Codec ID/Hint : MP2Duration : 3h 7mnBit rate mode : ConstantBit rate : 192 KbpsChannel(s) : 2 channelsSampling rate : 48.0 KHzCompression mode : LossyDelay relative to video : 4msStream size : 258 MiB (7%)Default : YesForced : No

Скриншоты

[teatrix.ru].t6534.torrent 
Торрент: Зарегистрирован [ 2015-10-10 17:14 ] · 1447119DE21094D5906A14342DE8E35EA332BCF7

Скачать .torrent

Скачать

19 KB

Статус: проверено
Скачан: 0 раз
Размер: 3.65 GB
terms.php



Быстрый ответ

Имя:

      
Для отправки сообщений необходимо включить JavaScript
Показать сообщения:    

Текущее время: 10-Дек 02:14

Часовой пояс: UTC + 3


Вы можете начинать темы
Вы можете отвечать на сообщения
Вы не можете редактировать свои сообщения
Вы не можете удалять свои сообщения
Вы не можете голосовать в опросах
Вы не можете прикреплять файлы к сообщениям
Вы можете скачивать файлы