Aneccy Classic Festival 2014 - Глинка - Руслан и Людмила; Glinka - Ruslan and Lyudmila, Eugene Ysaye - Op.27; Beethoven - Symphony No.3 Op.55 (Laurent Korcia - violin, St.Petersburg Philharmonic Orchestra, Zoltan Kocsis - conductor )[2014, Concert, H


Статистика раздачи [Обновить пиров]
Размер:  2.25 GB   |    Зарегистрирован:  1 год 1 месяц   |    Скачан:  0 раз

Полного источника не было: Никогда

 
   
 
 
 

[Цитировать]

Aneccy Classic Festival 2014 - Глинка - Ruslan and Ludmila; Eugene Ysaye - Op.27; Beethoven - Symphony No.3 Op.55
Год выпуска: 2014
Лейбл: MUSEEC/medici.tv
Страна-производитель: Sainte-Bernadette Church (Annecy, France)
Жанр: Concert
Продолжительность: 1 ч. 46 м.
Исполнители:
Laurent Korcia - violin
St.Petersburg Philharmonic Orchestra
Zoltán Kocsis - conductor
Треклист:
Михаил Иванович Глинка (1804 - 1857)
Ruslan and Ludmila
Overture
1833 - Brahms (1897)
Violin concerto in d major op.77
(Laurent Korcia)
Eugene Ysaye (1858 - 1931)
Sonata for Solo Violin in D minor, Op.27 No. 3 "Georges Enesco"
1. Ballades – Lento molto sostenuto
(Laurent Korcia)
Ludwig van Beethoven (1770 - 1827)
Symphony No. 3 in E-flat major, Op.55 "Eroica"
Качество видео: HDTVRip
Формат/Контейнер: FLV
Видео кодек: H.264
Аудио кодек: AAC
Видео поток: 1280x720, 2850 Кбит/сек, 25,000 кадров/сек, Прогрессивная
Аудио поток: AAC, 157 Кбит/сек, 48,0 КГц, 2 канала

Скриншоты

MediaInfo

Общее
Полное имя : C:\Users\Администратор\Music\Annecy Classic Festival\Zoltán Kocsis conducts Glinka, Brahms and Beethoven – With Laurent Korcia - Medici\Zoltán Kocsis conducts Glinka, Brahms and Beethoven – With Laurent Korcia - Medici.FLV
Формат : Flash Video
Размер файла : 2,25 Гбайт
Продолжительность : 1 ч. 46 м.
Общий поток : 3018 Кбит/сек
Видео
Формат : AVC
Формат/Информация : Advanced Video Codec
Профиль формата : Main@L3.1
Параметр CABAC формата : Да
Параметр ReFrames формата : 3 кадра
Идентификатор кодека : 7
Продолжительность : 1 ч. 46 м.
Вид битрейта : Постоянный
Битрейт : 2850 Кбит/сек
Ширина : 1280 пикселей
Высота : 720 пикселей
Соотношение сторон : 16:9
Режим частоты кадров : Постоянный
Частота кадров : 25,000 кадров/сек
Цветовое пространство : YUV
Субдискретизация насыщенности : 4:2:0
Битовая глубина : 8 бит
Тип развёртки : Прогрессивная
Бит/(Пиксели*Кадры) : 0.124
Размер потока : 2,12 Гбайт (94%)
Аудио
Формат : AAC
Формат/Информация : Advanced Audio Codec
Профиль формата : LC
Идентификатор кодека : 10
Продолжительность : 1 ч. 46 м.
Битрейт : 157 Кбит/сек
Каналы : 2 канала
Расположение каналов : Front: L R
Частота : 48,0 КГц
Метод сжатия : С потерями
Размер потока : 120 Мбайт (5%)
[teatrix.ru].t6535.torrent 
Торрент: Зарегистрирован [ 2015-10-10 17:14 ] · 9C49F4E99DBB2A6EA3F80425F933297EA122DA47

Скачать .torrent

Скачать

12 KB

Статус: проверено
Скачан: 0 раз
Размер: 2.25 GB
terms.php



Быстрый ответ

Имя:

      
Для отправки сообщений необходимо включить JavaScript
Показать сообщения:    

Текущее время: 02-Дек 23:10

Часовой пояс: UTC + 3


Вы можете начинать темы
Вы можете отвечать на сообщения
Вы не можете редактировать свои сообщения
Вы не можете удалять свои сообщения
Вы не можете голосовать в опросах
Вы не можете прикреплять файлы к сообщениям
Вы можете скачивать файлы