Ленинградцы. 900 дней во имя жизни. Концерт-спектакль (Богданов-Березовский, Шостакович, Жлобинский, Каменский, Кочуров, Вейсберг, Асафьев, Гольц, Мясковский, Калафати) [concert, DVB-AVC, 2014]


Статистика раздачи [Обновить пиров]
Размер:  1.94 GB   |    Зарегистрирован:  1 год 1 месяц   |    Скачан:  0 раз

Полного источника не было: Никогда

 
   
 
 
 

[Цитировать]

Ленинградцы. 900 дней во имя жизни. Концерт-спектакль
Жанр: concert
Год:2014
Продолжительность: 01:39:46
Исполнители: ГАСО им. Е.Ф. Светланова, дирижер Василий Синайский; хор Ансамбля песни и пляски им. В.С. Локтева, дирижер Анна Егорова; Государственный академический русский хор им. А.В. Свешникова, дирижер Евгений Волков. Солисты – Юрий Лаптев, Злата Булычева, Екатерина Мечетина, Михаил Гантварг, Людмила Дудинова. Ведущий: Николай Буров
Описание: В программе концерта – сочинения ленинградских композиторов, созданные во время войны и блокады. Среди них есть и неопубликованные сочинения, рукописи которых сохранились в архивах Москвы и Петербурга, – их исполнение станет мировой премьерой.

Треклист

Валериан Богданов-Березовский - увертюра-плакат к опере «Ленинградцы»
Дмитрий Шостакович - «Клятва наркому» – Юрий Лаптев
Валерий Жлобинский - «Человек склонился над водой» - Злата Булычева
Валериан Богданов-Березовский - народная сцена из оперы «Ленинградцы»
Александр Каменский - героический партизанский марш - Екатерина Мечетина
Валериан Богданов-Березовский - концерт для скрипки с оркестром. I часть - Михаил Гантварг
Юрий Кочуров - героическая ария - Злата Булычева
Валериан Богданов-Березовский - антракт и сцена в бомбоуберище из оперы «Ленинградцы» - Людмила Дудинова
Юлия Вейсберг - колыбельная из оперы «Гуси-лебеди» - Евдокия Малевская
Борис Асафьев - хоровая миниатюра «Святый Боже»
Борис Гольц - «Светит в небе звездочка высоко» - Злата Булычева
Борис Асафьев - «Может быть и я умру» - Людмила Дудинова
Николай Мясковский - кантата «Киров с нами» – Юрий Лаптев
Василий Калафати - торжественный марш «Звезды Кремля»
Качество видео: DVB-AVC (РТРС-1)
Формат/Контейнер: MKV
Видео кодек: H.264
Аудио кодек: MP2
Видео поток: 720x576 (AR 785:576) 50fps ~2500 Kbps
Аудио поток: 48000Hz 2 ch mono 192 Kbps

MediaInfo

Format : MatroskaFormat version : Version 4 / Version 2File size : 1.94 GiBDuration : 1h 39mnOverall bit rate : 2 789 KbpsEncoded date : UTC 2014-09-11 22:02:48Writing application : mkvmerge v6.1.0 ('Old Devil') built on Mar 4 2013 09:10:42Writing library : libebml v1.3.0 + libmatroska v1.4.0
VideoID : 1Format : AVCFormat/Info : Advanced Video CodecFormat profile : Main@L3.0Format settings, CABAC : YesFormat settings, ReFrames : 3 framesCodec ID : V_MPEG4/ISO/AVCDuration : 1h 39mnBit rate : 2 541 KbpsWidth : 720 pixelsHeight : 576 pixelsDisplay aspect ratio : 4:3Original display aspect ratio : 4:3Frame rate mode : ConstantFrame rate : 25.000 fpsStandard : ComponentColor space : YUVChroma subsampling : 4:2:0Bit depth : 8 bitsScan type : InterlacedBits/(Pixel*Frame) : 0.245Stream size : 1.77 GiB (91%)Default : YesForced : NoColor primaries : BT.601 PALTransfer characteristics : BT.470 System B, BT.470 System GMatrix coefficients : BT.601
AudioID : 2Format : MPEG AudioFormat version : Version 1Format profile : Layer 2Codec ID : A_MPEG/L2Codec ID/Hint : MP2Duration : 1h 39mnBit rate mode : ConstantBit rate : 192 KbpsChannel(s) : 2 channelsSampling rate : 48.0 KHzCompression mode : LossyDelay relative to video : 12msStream size : 137 MiB (7%)Default : YesForced : No

Скриншоты

[teatrix.ru].t6536.torrent 
Торрент: Зарегистрирован [ 2015-10-10 17:10 ] · 23082FC7DBD7D03A49981288C356B172C4D5D608

Скачать .torrent

Скачать

20 KB

Статус: проверено
Скачан: 0 раз
Размер: 1.94 GB
terms.php



Быстрый ответ

Имя:

      
Для отправки сообщений необходимо включить JavaScript
Показать сообщения:    

Текущее время: 10-Дек 15:49

Часовой пояс: UTC + 3


Вы можете начинать темы
Вы можете отвечать на сообщения
Вы не можете редактировать свои сообщения
Вы не можете удалять свои сообщения
Вы не можете голосовать в опросах
Вы не можете прикреплять файлы к сообщениям
Вы можете скачивать файлы