Aneccy Classic Festival 2014 - Чайковский - Op.24, Op.33; Dvorak - Op.46; Д.Д.Шостакович - Concerto No.1 Op.35; Мусоргский - Картинки с выставки (Yuja Wang - piano, Юрий Темирканов - conductor)[2014, Concert, HDTVRip, 720p]


Статистика раздачи [Обновить пиров]
Размер:  2.22 GB   |    Зарегистрирован:  1 год 1 месяц   |    Скачан:  0 раз

Полного источника не было: Никогда

 
   
 
 
 

[Цитировать]

Aneccy Classic Festival 2014 - Чайковский - Eugene Onegin, Op.24, Variations on a Rococo Theme, Op.33; Dvorak - Op.46; Д.Д.Шостакович - Concerto No.1 Op.35 (Yuja Wang - piano, St.Petersburg Philharmonic Orchestra, Yuri Temirkanov - conductor)[2014, Concert, HDTVRip, 720p]
Год выпуска: 2014
Лейбл: MUSEEC/medici.tv
Страна-производитель: Sainte-Bernadette Church (Annecy, France)
Жанр: Concert
Продолжительность: 1 ч. 45 м.
Исполнители:
Alexander Kniazev - cello
Clément Saunier - trumpet
Yuja - Wang piano
St Petersburg Philharmonic Orchestra
Yuri Temirkanov - conductor
Треклист:
Пётр Ильич Чайковский (1840 - 1893)
Eugene Onegin, Op.24
Polonaise
Пётр Ильич Чайковский (1840 - 1893)
Variations on a Rococo Theme, Op.33
Д.Д.Шостакович (1906 - 1975)
Concerto No. 1 for Piano and Trumpet, Op.35
Модеест Петроович Мусоргский (1839 - 1881)
Pictures at an exhibition
Качество видео: HDTVRip
Формат/Контейнер: FLV
Видео кодек: H.264
Аудио кодек: AAC
Видео поток: 1280x720, 2850 Кбит/сек, 25,000 кадров/сек, Прогрессивная
Аудио поток: AAC, 157 Кбит/сек, 48,0 КГц, 2 канала

Скриншоты

MediaInfo

Общее
Полное имя : C:\Users\Администратор\Music\Annecy Classic Festival\Yuri Temirkanov conducts Tchaikovsky, Shostakovich and Mussorgsky - Yuja Wang - Medici\Yuri Temirkanov conducts Tchaikovsky, Shostakovich and Mussorgsky - Yuja Wang - Medici.FLV
Формат : Flash Video
Размер файла : 2,22 Гбайт
Продолжительность : 1 ч. 45 м.
Общий поток : 3018 Кбит/сек
Видео
Формат : AVC
Формат/Информация : Advanced Video Codec
Профиль формата : Main@L3.1
Параметр CABAC формата : Да
Параметр ReFrames формата : 3 кадра
Идентификатор кодека : 7
Продолжительность : 1 ч. 45 м.
Вид битрейта : Постоянный
Битрейт : 2850 Кбит/сек
Ширина : 1280 пикселей
Высота : 720 пикселей
Соотношение сторон : 16:9
Режим частоты кадров : Постоянный
Частота кадров : 25,000 кадров/сек
Цветовое пространство : YUV
Субдискретизация насыщенности : 4:2:0
Битовая глубина : 8 бит
Тип развёртки : Прогрессивная
Бит/(Пиксели*Кадры) : 0.124
Размер потока : 2,10 Гбайт (94%)
Аудио
Формат : AAC
Формат/Информация : Advanced Audio Codec
Профиль формата : LC
Идентификатор кодека : 10
Продолжительность : 1 ч. 45 м.
Битрейт : 157 Кбит/сек
Каналы : 2 канала
Расположение каналов : Front: L R
Частота : 48,0 КГц
Метод сжатия : С потерями
Размер потока : 119 Мбайт (5%)
[teatrix.ru].t6537.torrent 
Торрент: Зарегистрирован [ 2015-10-10 17:14 ] · 0E1A5CF621D33E6A345DA10EB7F37BEFC97D453B

Скачать .torrent

Скачать

12 KB

Статус: проверено
Скачан: 0 раз
Размер: 2.22 GB
terms.php



Быстрый ответ

Имя:

      
Для отправки сообщений необходимо включить JavaScript
Показать сообщения:    

Текущее время: 09-Дек 22:25

Часовой пояс: UTC + 3


Вы можете начинать темы
Вы можете отвечать на сообщения
Вы не можете редактировать свои сообщения
Вы не можете удалять свои сообщения
Вы не можете голосовать в опросах
Вы не можете прикреплять файлы к сообщениям
Вы можете скачивать файлы