Ван Клиберн - Мастер класс/Van Cliburn- Master Class (Chopin, Ravel) [2009, classic, piano, documentary, educational, DVB-AVC]


Статистика раздачи [Обновить пиров]
Размер:  765 MB   |    Зарегистрирован:  1 год 1 месяц   |    Скачан:  0 раз

Полного источника не было: Никогда

 
   
 
 
 

[Цитировать]

Ван Клиберн - Мастер класс/Van Cliburn- Master Class
Год выпуска: 2009
Жанр: classic, piano, documentary, educational
Продолжительность: 00:38:48
Треклист и исполнителии:
Фредерик Шопен - Баллада №3. Фрагмент (Никита Тонконогов)
Фредерик Шопен - Полонез-фантазия. Фрагмент (Николай Хозяинов)
Морис Равель - Вальс. Фрагмент (Филипп Копачевский)
Описание: Первый Международный фестиваль мастер-классов "Слава Маэстро!"
Мастер-классы давно стали одной из самых распространенных форм общения маститых художников и молодых артистов. Однако Фестиваль мастер-классов, в котором участвуют очень разные, непохожие друг на друга музыканты, - проходит впервые не только в России, но, по-видимому, и в мире. Фестиваль посвящен памяти Мстислава Ростроповича - гениального музыканта и не менее гениального наставника, педагога.
Маэстро Ван Клиберн был восхищен исполнительским уровнем участников мастер-класса, но не обошлось и без замечаний и поправок.
Качество видео: DVB-AVC (РТРС-1)
Формат/Контейнер: MKV
Видео кодек: H.264
Аудио кодек: MP2
Видео поток: 720x576 (AR 785:576) 50fps ~2500 Kbps
Аудио поток: 48000Hz 2 ch mono 192 Kbps

MI

Format : Matroska
Format version : Version 4 / Version 2
File size : 765 MiB
Duration : 38mn 48s
Overall bit rate : 2 755 Kbps
Encoded date : UTC 2014-08-25 08:07:37
Writing application : mkvmerge v6.1.0 ('Old Devil') built on Mar 4 2013 09:10:42
Writing library : libebml v1.3.0 + libmatroska v1.4.0
Video
ID : 1
Format : AVC
Format/Info : Advanced Video Codec
Format profile : Main@L3.0
Format settings, CABAC : Yes
Format settings, ReFrames : 3 frames
Codec ID : V_MPEG4/ISO/AVC
Duration : 38mn 48s
Bit rate : 2 508 Kbps
Width : 720 pixels
Height : 576 pixels
Display aspect ratio : 4:3
Original display aspect ratio : 4:3
Frame rate mode : Constant
Frame rate : 25.000 fps
Standard : Component
Color space : YUV
Chroma subsampling : 4:2:0
Bit depth : 8 bits
Scan type : Interlaced
Bits/(Pixel*Frame) : 0.242
Stream size : 696 MiB (91%)
Default : Yes
Forced : No
Color primaries : BT.601 PAL
Transfer characteristics : BT.470 System B, BT.470 System G
Matrix coefficients : BT.601
Audio
ID : 2
Format : MPEG Audio
Format version : Version 1
Format profile : Layer 2
Codec ID : A_MPEG/L2
Codec ID/Hint : MP2
Duration : 38mn 48s
Bit rate mode : Constant
Bit rate : 192 Kbps
Channel(s) : 2 channels
Sampling rate : 48.0 KHz
Compression mode : Lossy
Delay relative to video : 20ms
Stream size : 53.3 MiB (7%)
Default : Yes
Forced : No

Скриншоты

[teatrix.ru].t6538.torrent 
Торрент: Зарегистрирован [ 2015-10-10 17:14 ] · C93DCDAE98B189D8347DBAD63B5DBADD870CC700

Скачать .torrent

Скачать

15 KB

Статус: проверено
Скачан: 0 раз
Размер: 765 MB
terms.php



Быстрый ответ

Имя:

      
Для отправки сообщений необходимо включить JavaScript
Показать сообщения:    

Текущее время: 06-Дек 19:03

Часовой пояс: UTC + 3


Вы можете начинать темы
Вы можете отвечать на сообщения
Вы не можете редактировать свои сообщения
Вы не можете удалять свои сообщения
Вы не можете голосовать в опросах
Вы не можете прикреплять файлы к сообщениям
Вы можете скачивать файлы