Aneccy Classic Festival 2014 - Liszt - Les Préludes, Piano Concerto No.2, Totentanz; Dvorak - Op.46; Чайковский - Op.71 (Denis Matsuev - piano, St.Petersburg Philharmonic Orchestra, Zoltán Kocsis - conductor)[2014, Concert, HDTVRip, 720p]


Статистика раздачи [Обновить пиров]
Размер:  2.07 GB   |    Зарегистрирован:  1 год 1 месяц   |    Скачан:  1 раз

Полного источника не было: 2 дня 7 часов

 
   
 
 
 

[Цитировать]

Aneccy Classic Festival 2014 - Liszt; Dvorak; Чайковский
Год выпуска: 2014
Лейбл: MUSEEC/medici.tv
Страна-производитель: (Verbier, Switzerland)
Жанр: Concert
Продолжительность: 1 ч. 38 м.
Исполнители: Denis Matsuev - piano,
St.Petersburg Philharmonic Orchestra,
Zoltán Kocsis - conductor
Треклист:
Franz Liszt (1811 — 1886)
Les Préludes
Franz Liszt (1811 — 1886)
Piano Concerto No. 2 in A major, S. 125
Franz Liszt (1811 — 1886)
Totentanz
Antonin Dvorak (1841 — 1904)
Slavonic Dances, Op. 46
Петр Чайковский (1840 - 1893)
The Nutcracker, Op. 71
II: Character Dances: Trépak (Russian Dance)
Описание:
Zoltán Kocsis will meet again the pianist Denis Matsuev with the St. Petersburg Philharmonic Orchestra for a night dedicated to Liszt and Dvořák.
Musical director of the Hungarian Philharmonic Orchestra since 1997, Zoltán Kocsis is also known for his talents as a pianist and for his compositions. Trained at the Franz Liszt Academy, he is one of the most renowned interpreters of the Hungarian composer. It is thus not surprising to find him again conducting the St. Petersburg Philharmonic Orchestra for a program dedicated to the Master and the Czech composer Antonín Dvořák.
Pianist Denis Matsuev, very familiar with medici.tv since his beginnings at the Verbier Festival in 2011, sets himself apart by his powerful playing and his unrivalled agility serving musical works just as virtuoso.
The Preludes, symphonic poem of the composer, will be performed, but also the Piano Concerto in A major No. 2, requiring very thorough skills, as well as the dark Totentanz. Dvořák will finally end up this evening on a cheerful and poetic note with the Slavonic Dances Op.46.
Качество видео: HDTVRip
Формат/Контейнер: FLV
Видео кодек: H.264
Аудио кодек: AAC
Видео поток: 1280x720, 2850 Кбит/сек, 25,000 кадров/сек, Прогрессивная
Аудио поток: AAC, 157 Кбит/сек, 48,0 КГц, 2 канала

Скриншоты

MediaInfo

Общее
Полное имя : C:\Users\Администратор\Music\Annecy Classic Festival\Zoltán Kocsis conducts Liszt and Dvořák – With Denis Matsuev - Medici_2\Zoltán Kocsis conducts Liszt and Dvořák – With Denis Matsuev - Medici_2.FLV
Формат : Flash Video
Размер файла : 2,07 Гбайт
Продолжительность : 1 ч. 38 м.
Общий поток : 3018 Кбит/сек
Видео
Формат : AVC
Формат/Информация : Advanced Video Codec
Профиль формата : Main@L3.1
Параметр CABAC формата : Да
Параметр ReFrames формата : 3 кадра
Идентификатор кодека : 7
Продолжительность : 1 ч. 38 м.
Вид битрейта : Постоянный
Битрейт : 2850 Кбит/сек
Ширина : 1280 пикселей
Высота : 720 пикселей
Соотношение сторон : 16:9
Режим частоты кадров : Постоянный
Частота кадров : 25,000 кадров/сек
Цветовое пространство : YUV
Субдискретизация насыщенности : 4:2:0
Битовая глубина : 8 бит
Тип развёртки : Прогрессивная
Бит/(Пиксели*Кадры) : 0.124
Размер потока : 1,96 Гбайт (94%)
Аудио
Формат : AAC
Формат/Информация : Advanced Audio Codec
Профиль формата : LC
Идентификатор кодека : 10
Продолжительность : 1 ч. 38 м.
Битрейт : 157 Кбит/сек
Каналы : 2 канала
Расположение каналов : Front: L R
Частота : 48,0 КГц
Метод сжатия : С потерями
Размер потока : 111 Мбайт (5%)
[teatrix.ru].t6539.torrent 
Торрент: Зарегистрирован [ 2015-10-10 17:14 ] · C9B974249A8EBD9BECE5064878CBA8D316FD0571

Скачать .torrent

Скачать

11 KB

Статус: проверено
Скачан: 1 раз
Размер: 2.07 GB
terms.php



Быстрый ответ

Имя:

      
Для отправки сообщений необходимо включить JavaScript
Показать сообщения:    

Текущее время: 05-Дек 03:30

Часовой пояс: UTC + 3


Вы можете начинать темы
Вы можете отвечать на сообщения
Вы не можете редактировать свои сообщения
Вы не можете удалять свои сообщения
Вы не можете голосовать в опросах
Вы не можете прикреплять файлы к сообщениям
Вы можете скачивать файлы