Verbier Festival 2014 - Joseph Haydn - Piano concerto in D major; Gustav Mahler - Symphony No. 6; (Михаил Плетнев - piano , Verbier Festival Orchestra, Iván Fischer - conductor )[2014, Concert, HDTVRip, 720p]


Статистика раздачи [Обновить пиров]
Размер:  2.35 GB   |    Зарегистрирован:  1 год 1 месяц   |    Скачан:  0 раз

Полного источника не было: Никогда

 
   
 
 
 

[Цитировать]

Verbier Festival 2014 - Joseph Haydn; Gustav Mahler - Mikhail Pletnev - piano
Год выпуска: 2014
Лейбл: MUSEEC/medici.tv
Страна-производитель: (Verbier, Switzerland)
Жанр: Concert
Продолжительность: 1 ч. 51 м.
Исполнители:
Mikhail Pletnev - piano,
Verbier Festival Orchestra,
Iván Fischer - conductor
Треклист:
Franz Joseph Haydn (1732 - 1809)
Piano concerto in D major, Hob XVIII:11
Gustav Mahler (1860 — 1911)
Symphony No. 6 in A minor, "Tragic"
Описание: The closing concert of the Verbier Festival 2014, with Iván Fischer and Mikhail Pletnev.
For more than 30 years, Iván Fischer has the musical director of the Budapest Festival Orchestra which he founded, and he is today one of the most iconic people of the music scene. He is also the music director of the Konzerthaus Berlin and his orchestra. This summer, he is a guest at the Verbier Festival to close the 2014 edition with the Verbier Festival Orchestra.
Following a performance of Haydn's Piano Concerto in E major, starring Mikhail Pletnev, Iván Fischer will also conduct Mahler's Symphony No. 6, "Tragic", one of the most famous symphonies ever written by the composer.
Качество видео: HDTVRip
Формат/Контейнер: FLV
Видео кодек: H.264
Аудио кодек: AAC
Видео поток: 1280x720, 2850 Кбит/сек, 25,000 кадров/сек, Прогрессивная
Аудио поток: AAC, 157 Кбит/сек, 48,0 КГц, 2 канала

Скриншоты

MediaInfo

Общее
Полное имя : C:\Users\Администратор\Music\verbier-festival 2014\Iván Fischer conducts Haydn and Mahler – With Mikhail Pletnev - Medici\Iván Fischer conducts Haydn and Mahler – With Mikhail Pletnev - Medici.FLV
Формат : Flash Video
Размер файла : 2,35 Гбайт
Продолжительность : 1 ч. 51 м.
Общий поток : 3018 Кбит/сек
Видео
Формат : AVC
Формат/Информация : Advanced Video Codec
Профиль формата : Main@L3.1
Параметр CABAC формата : Да
Параметр ReFrames формата : 3 кадра
Идентификатор кодека : 7
Продолжительность : 1 ч. 51 м.
Вид битрейта : Постоянный
Битрейт : 2850 Кбит/сек
Ширина : 1280 пикселей
Высота : 720 пикселей
Соотношение сторон : 16:9
Режим частоты кадров : Постоянный
Частота кадров : 25,000 кадров/сек
Цветовое пространство : YUV
Субдискретизация насыщенности : 4:2:0
Битовая глубина : 8 бит
Тип развёртки : Прогрессивная
Бит/(Пиксели*Кадры) : 0.124
Размер потока : 2,22 Гбайт (94%)
Аудио
Формат : AAC
Формат/Информация : Advanced Audio Codec
Профиль формата : LC
Идентификатор кодека : 10
Продолжительность : 1 ч. 51 м.
Битрейт : 157 Кбит/сек
Каналы : 2 канала
Расположение каналов : Front: L R
Частота : 48,0 КГц
Метод сжатия : С потерями
Размер потока : 125 Мбайт (5%)
[teatrix.ru].t6540.torrent 
Торрент: Зарегистрирован [ 2015-10-10 17:10 ] · 8951E54DB99C8BE52DEEF32ED321644AED07A8CC

Скачать .torrent

Скачать

12 KB

Статус: проверено
Скачан: 0 раз
Размер: 2.35 GB
terms.php



Быстрый ответ

Имя:

      
Для отправки сообщений необходимо включить JavaScript
Показать сообщения:    

Текущее время: 03-Дек 12:36

Часовой пояс: UTC + 3


Вы можете начинать темы
Вы можете отвечать на сообщения
Вы не можете редактировать свои сообщения
Вы не можете удалять свои сообщения
Вы не можете голосовать в опросах
Вы не можете прикреплять файлы к сообщениям
Вы можете скачивать файлы