Verbier Festival 2014 - Brahms - Op.8; Cesar Franck (Юрий Башмет - альт, Ksenia Bashmet - piano, Joshua Bell - violin, Pamela Frank - violin, Nobuko Imai - viola, Steven Isserlis - cello, Marc-André Hamelin - piano)[2014, Concert, HDT


Статистика раздачи [Обновить пиров]
Размер:  2.08 GB   |    Зарегистрирован:  1 год 1 месяц   |    Скачан:  0 раз

Полного источника не было: Никогда

 
   
 
 
 

[Цитировать]

Verbier Festival 2014 - Brahms; Cesar Franck [2014, Concert, HDTVRip, 720p]
Год выпуска: 2014
Лейбл: MUSEEC/medici.tv
Страна-производитель: (Verbier, Switzerland)
Жанр: Concert
Продолжительность: 1 ч. 38 м.
Исполнители:
Ю́рий Абраамович Башмеет - альт
Joshua Bell - violin,
Pamela Frank - violin,
Nobuko Imai - viola,
Steven Isserlis - cello,
Marc-Andre Hamelin - piano
Треклист:
Johannes Brahms (1833-1897)
Sonate pour alto et piano en fa mineur op.120 N° 1
1833 - Brahms (1897)
Piano trio No. 1 in B major, Op.8
Cesar Franck (1822 — 1890)
Quintet for piano and strings in F minor
Качество видео: HDTVRip
Формат/Контейнер: FLV
Видео кодек: H.264
Аудио кодек: AAC
Видео поток: 1280x720, 2850 Кбит/сек, 25,000 кадров/сек, Прогрессивная
Аудио поток: AAC, 157 Кбит/сек, 48,0 КГц, 2 канала

Скриншоты

MediaInfo

Общее
Полное имя : C:\Users\Администратор\Music\verbier-festival 2014\Joshua Bell, Pamela Frank, Nobuko Imai, Steven Isserlis, Marc-André Hamelin play Brahms and Franck - Medici\Joshua Bell, Pamela Frank- play Brahms and Franck - Medici.FLV
Формат : Flash Video
Размер файла : 2,08 Гбайт
Продолжительность : 1 ч. 38 м.
Общий поток : 3018 Кбит/сек
Видео
Формат : AVC
Формат/Информация : Advanced Video Codec
Профиль формата : Main@L3.1
Параметр CABAC формата : Да
Параметр ReFrames формата : 3 кадра
Идентификатор кодека : 7
Продолжительность : 1 ч. 38 м.
Вид битрейта : Постоянный
Битрейт : 2850 Кбит/сек
Ширина : 1280 пикселей
Высота : 720 пикселей
Соотношение сторон : 16:9
Режим частоты кадров : Постоянный
Частота кадров : 25,000 кадров/сек
Цветовое пространство : YUV
Субдискретизация насыщенности : 4:2:0
Битовая глубина : 8 бит
Тип развёртки : Прогрессивная
Бит/(Пиксели*Кадры) : 0.124
Размер потока : 1,97 Гбайт (94%)
Аудио
Формат : AAC
Формат/Информация : Advanced Audio Codec
Профиль формата : LC
Идентификатор кодека : 10
Продолжительность : 1 ч. 38 м.
Битрейт : 157 Кбит/сек
Каналы : 2 канала
Расположение каналов : Front: L R
Частота : 48,0 КГц
Метод сжатия : С потерями
Размер потока : 111 Мбайт (5%)
[teatrix.ru].t6542.torrent 
Торрент: Зарегистрирован [ 2015-10-10 17:10 ] · 4F0412FD8701E80EDA5806459323C7D1BB998EF2

Скачать .torrent

Скачать

11 KB

Статус: проверено
Скачан: 0 раз
Размер: 2.08 GB
terms.php



Быстрый ответ

Имя:

      
Для отправки сообщений необходимо включить JavaScript
Показать сообщения:    

Текущее время: 07-Дек 11:39

Часовой пояс: UTC + 3


Вы можете начинать темы
Вы можете отвечать на сообщения
Вы не можете редактировать свои сообщения
Вы не можете удалять свои сообщения
Вы не можете голосовать в опросах
Вы не можете прикреплять файлы к сообщениям
Вы можете скачивать файлы