Verbier Festival 2014 - Mendelssohn - Op.64; Christoph Gluck - Melody; Bruckner - Symphony No.8 (Renaud Capuçon - violin, Verbier Festival Orchestra, Jaap van Zweden - conductor )[2014, Concert, HDTVRip, 720p]


Статистика раздачи [Обновить пиров]
Размер:  2.41 GB   |    Зарегистрирован:  1 год 2 месяца   |    Скачан:  1 раз

Полного источника не было: 7 месяцев 7 дней

 
   
 
 
 

[Цитировать]

Verbier Festival 2014 - Mendelssohn - Op.64; Christoph Gluck - Melody; Bruckner - Symphony No.8 (Renaud Capuçon - violin, Verbier Festival Orchestra, Jaap van Zweden - conductor )
Год выпуска: 2014
Лейбл: MUSEEC/medici.tv
Страна-производитель: (Verbier, Switzerland)
Жанр: Concert
Продолжительность: 1 ч. 54 м.
Исполнители: Jaap van Zweden - conductor,
Renaud Capuçon - violin,
Verbier Festival Orchestra.
Треклист:
Mendelssohn (1809 - 1847)
Violin Concerto in E minor, Op.64
Christoph Gluck (1714 — 1787)
Orfeo ed Euridice : Melody
Anton Bruckner (1824 — 1896)
Symphony No.8 in C minor
Описание:
Jaap Van Zweden (leading the Verbier Festival Orchestra) and the French violinist Renaud Capuçon, live at the Salle des Combins for a Mendelssohn and Bruckner concert.
Amsterdam-born Jaap van Zweden is one of today’s most sought-after conductors. He has been Music Director of the Dallas Symphony Orchestra since 2008, and in September 2012 he took up the position of Music Director of the Hong Kong Philharmonic Orchestra. He began his conducting career in 1995 and held the positions of Chief Conductor of the Netherlands Symphony Orchestra (1996-2000), Chief Conductor of the Residentie Orchestra of The Hague (2000-2005), and Chief Conductor of the Royal Flemish Philharmonic Orchestra (2008-2011) and Chief Conductor and Artistic Director of the Netherlands Radio Philharmonic Orchestra and Radio Chamber Orchestras from 2005-2011. He guest conducts prestigious orchestras worldwide including the Chicago Symphony Orchestra, the Cleveland Orchestra, the Philadelphia Orchestra, the Berliner Philharmoniker, the Vienna Philharmonic, the London Symphony orchestra, the Orchestre de Paris... Van Zweden was named as the recipient of Musical America's Conductor of the Year Award 2012.
With him, French violinist Renaud Capuçon, spotted by the very much regretted Claudio Abbado in 1998, who named him Konzertmeister of the Gustav Mahler Jugendorchester. Very soon, his talent made him a "Rising Star" and "New Talent of the year" at the French Victoires de la Musique classique (2000), and he was named "Intrumental soloist of the year" in 2005. On top of his international career, he founded the Bel-Air Encounters of Chamber Music that he conducted from 1996 to 2010. He is also founder and artistic director of the Festival de Pâques in Aix en Provence.
They will perform Mendelssohn's Violin Concerto in E minor, Op. 64, one of his most famous works, and also one of the greatest violin concertos of the 20th century, and Anton Bruckner's Symphony No. 8, also known as "the Symphony of symphonies".
Качество видео: HDTVRip
Формат/Контейнер: FLV
Видео кодек: H.264
Аудио кодек: AC3
Видео поток: 1280x720, 2850 Кбит/сек, 25,000 кадров/сек, Прогрессивная
Аудио поток: AAC, 157 Кбит/сек, 48,0 КГц, 2 канала

Скриншоты

MediaInfo

Общее
Полное имя : C:\Users\Администратор\Music\verbier-festival 2014\Jaap Van Zweden conducts Mendelssohn and Bruckner – With Renaud Capuçon - Medici\Jaap Van Zweden conducts Mendelssohn and Bruckner – With Renaud Capuçon - Medici.FLV
Формат : Flash Video
Размер файла : 2,41 Гбайт
Продолжительность : 1 ч. 54 м.
Общий поток : 3018 Кбит/сек
Видео
Формат : AVC
Формат/Информация : Advanced Video Codec
Профиль формата : Main@L3.1
Параметр CABAC формата : Да
Параметр ReFrames формата : 3 кадра
Идентификатор кодека : 7
Продолжительность : 1 ч. 54 м.
Вид битрейта : Постоянный
Битрейт : 2850 Кбит/сек
Ширина : 1280 пикселей
Высота : 720 пикселей
Соотношение сторон : 16:9
Режим частоты кадров : Постоянный
Частота кадров : 25,000 кадров/сек
Цветовое пространство : YUV
Субдискретизация насыщенности : 4:2:0
Битовая глубина : 8 бит
Тип развёртки : Прогрессивная
Бит/(Пиксели*Кадры) : 0.124
Размер потока : 2,28 Гбайт (94%)
Аудио
Формат : AAC
Формат/Информация : Advanced Audio Codec
Профиль формата : LC
Идентификатор кодека : 10
Продолжительность : 1 ч. 54 м.
Битрейт : 157 Кбит/сек
Каналы : 2 канала
Расположение каналов : Front: L R
Частота : 48,0 КГц
Метод сжатия : С потерями
Размер потока : 129 Мбайт (5%)
[teatrix.ru].t6543.torrent 
Торрент: Зарегистрирован [ 2015-10-10 17:10 ] · 40ABC90BD4461FBCE224A6FC698FB41677EE2372

Скачать .torrent

Скачать

13 KB

Статус: проверено
Скачан: 1 раз
Размер: 2.41 GB
terms.php



Быстрый ответ

Имя:

      
Для отправки сообщений необходимо включить JavaScript
Показать сообщения:    

Текущее время: 11-Дек 13:02

Часовой пояс: UTC + 3


Вы можете начинать темы
Вы можете отвечать на сообщения
Вы не можете редактировать свои сообщения
Вы не можете удалять свои сообщения
Вы не можете голосовать в опросах
Вы не можете прикреплять файлы к сообщениям
Вы можете скачивать файлы