Verbier Festival 2014 - Beethoven - Trio for piano and strings No.3, Op.1; Mendelssohn - Trio for violin, cello and piano Op.49 (Leonidas Kavakos - violin, Clemens Hagen - cello, Marc-André Hamelin - piano )[2014, Concert, HDTVRip, 720p]


Статистика раздачи [Обновить пиров]
Размер:  1.28 GB   |    Зарегистрирован:  1 год 1 месяц   |    Скачан:  0 раз

Полного источника не было: Никогда

 
   
 
 
 

[Цитировать]

Verbier Festival 2014 - Beethoven - Trio for piano and strings No.3, Op.1; Mendelssohn - Trio for violin, cello and piano Op.49 (Leonidas Kavakos - violin, Clemens Hagen - cello, Marc-André Hamelin - piano )
Год выпуска: 2014
Лейбл: MUSEEC/medici.tv
Страна-производитель: (Verbier, Switzerland)
Жанр: Concert
Продолжительность: 1 ч. 0 м.
Исполнители:
Leonidas Kavakos - violin,
Clemens Hagen - cello,
Marc-André Hamelin - piano
Треклист:
Ludwig van Beethoven (1770 - 1827)
Trio for piano and strings No.3, Op.1
Mendelssohn (1809 - 1847)
Trio for violin, cello and piano No. 1 in D minor, Op.49
Описание:
At the Verbier church, the trio Kavakos-Hagen-Hamelin performs masterpieces of the Romantic repertoire, live on medici.tv!
Following his victories at both the Sibelius and Paganini competitions in 1985 and 1988, Leonidas Kavakos quickly became one of the most sough-after violinists of the classical musical scene. He will play in a trio fomation with cellist Clemens Hagen (passionate about chamber music, he founded the Hagen Quartet ensemble) and Canadian pianist Marc-André Hamelin. This latter is very well known for exploring various rare or unknown repertoires, but his talent also serves piano masterpieces, with a constant will to defy the limits of the instrument.
Before Beethoven, trios for piano were very rare. Kavakos, Hagen and Hamelin will open the concert with his Trio for piano and strings No. 3 in C minor. As far as Mendelssohn's Trio for piano and strings No. 1 is concerned, it was composed in 1839 and performed for the first time in Leipzig on February 1st 1840, with violinist Ferdinand David, cellist Karl Wittmann and the composer himself on the piano.
Качество видео: HDTVRip
Формат/Контейнер: FLV
Видео кодек: H.264
Аудио кодек: AAC
Видео поток: 1280x720, 2850 Кбит/сек, 25,000 кадров/сек, Прогрессивная
Аудио поток: AAC, 157 Кбит/сек, 48,0 КГц, 2 канала

Скриншоты

MediaInfo

Общее
Полное имя : C:\Users\Администратор\Music\verbier-festival 2014\Leonidas Kavakos, Clemens Hagen and Marc-André Hamelin play Beethoven and Mendelssohn\Leonidas Kavakos, Clemens Hagen and Marc-André Hamelin play Beethoven and Mendelssohn - Medici.FLV
Формат : Flash Video
Размер файла : 1,28 Гбайт
Продолжительность : 1 ч. 0 м.
Общий поток : 3018 Кбит/сек
Видео
Формат : AVC
Формат/Информация : Advanced Video Codec
Профиль формата : Main@L3.1
Параметр CABAC формата : Да
Параметр ReFrames формата : 3 кадра
Идентификатор кодека : 7
Продолжительность : 1 ч. 0 м.
Вид битрейта : Постоянный
Битрейт : 2850 Кбит/сек
Ширина : 1280 пикселей
Высота : 720 пикселей
Соотношение сторон : 16:9
Режим частоты кадров : Постоянный
Частота кадров : 25,000 кадров/сек
Цветовое пространство : YUV
Субдискретизация насыщенности : 4:2:0
Битовая глубина : 8 бит
Тип развёртки : Прогрессивная
Бит/(Пиксели*Кадры) : 0.124
Размер потока : 1,20 Гбайт (94%)
Аудио
Формат : AAC
Формат/Информация : Advanced Audio Codec
Профиль формата : LC
Идентификатор кодека : 10
Продолжительность : 1 ч. 0 м.
Битрейт : 157 Кбит/сек
Каналы : 2 канала
Расположение каналов : Front: L R
Частота : 48,0 КГц
Метод сжатия : С потерями
Размер потока : 68,1 Мбайт (5%)
[teatrix.ru].t6544.torrent 
Торрент: Зарегистрирован [ 2015-10-10 17:10 ] · 5AEAD727B0D088A756690AE263124F417E1DE62C

Скачать .torrent

Скачать

13 KB

Статус: проверено
Скачан: 0 раз
Размер: 1.28 GB
terms.php



Быстрый ответ

Имя:

      
Для отправки сообщений необходимо включить JavaScript
Показать сообщения:    

Текущее время: 09-Дек 12:45

Часовой пояс: UTC + 3


Вы можете начинать темы
Вы можете отвечать на сообщения
Вы не можете редактировать свои сообщения
Вы не можете удалять свои сообщения
Вы не можете голосовать в опросах
Вы не можете прикреплять файлы к сообщениям
Вы можете скачивать файлы