Verbier Festival 2014 - Глазунов Op.20; Benjamin Britten Op.87; Михаил Плетнёв; Schumann - Op.102 (Steven Isserlis - cello, Mikhail Pletnev - piano)[2014, Concert, HDTVRip, 720p]


Статистика раздачи [Обновить пиров]
Размер:  1.59 GB   |    Зарегистрирован:  1 год 1 месяц   |    Скачан:  1 раз

Полного источника не было: 5 месяцев 3 дня

 
   
 
 
 

[Цитировать]

Verbier Festival 2014 - Глазунов Op.20; Benjamin Britten Op.87; Михаил Плетнёв; Schumann - Op.102 (Steven Isserlis - cello, Mikhail Pletnev - piano)[2014, Concert, HDTVRip, 720p]
Год выпуска: 2014
Лейбл: MUSEEC/medici.tv
Страна-производитель: (Verbier, Switzerland)
Жанр: Concert
Продолжительность: 1 ч. 15 м.
Исполнители: Steven Isserlis cello
Mikhail Pletnev piano
Треклист:
Александр Константинович Глазунов (1865 - 1936)
Two pieces for cello and piano, Op.20
Benjamin Britten (1913 - 1976)
Cello Suite No.3, Op.87
Михаил Васильевич Плетнёв
Sonata for cello and piano
Robert Schumann (1810 - 1856)
5 Stücke im Volkston, Op. 102 1. Mit Humor
Описание:
Reunion of two long-time friends and colleagues, Steven Isserlis and Mikhail Pletnev.
During this recital given at the Verbier church, they will perform the Sonata for cello and piano composed by Mikhail Pletnev for his friend Steven Isserlis, as well as other masterpieces of the repertoire for cello and piano.
Mikhail Pletnev is not only a world renowned pianist and conductor, he is also a very talented composer. Known as one of the best artists of our time, he won at the age of 21 the Gold Medal and the First Prize at the Tchaikovsky International Piano Competition in 1978, leading him to take center stage of the music scene.
As far as Steven Isserlis is concerned, he plays with the most prestigious orchestras, such as the Philharmonia Orchestra, the Berliner Philharmoniker, the New York Philharmonic, and the Boston Symphony Orchestra. He also gives brilliant and pioneering chamber music recitals. His latest recording of Bach's Cello Suites was awarded in 2007 by Classic FM Gramophone.
Качество видео: HDTVRip
Формат/Контейнер: FLV
Видео кодек: H.264
Аудио кодек: AAC
Видео поток: 1280x720, 2850 Кбит/сек, 25,000 кадров/сек, Прогрессивная
Аудио поток: AAC, 157 Кбит/сек, 48,0 КГц, 2 канала

Скриншоты

MediaInfo

Общее
Полное имя : C:\Users\Администратор\Music\verbier-festival 2014\Steven Isserlis and Mikhail Pletnev in recital - Medici\Steven Isserlis and Mikhail Pletnev in recital - Medici.FLV
Формат : Flash Video
Размер файла : 1,59 Гбайт
Продолжительность : 1 ч. 15 м.
Общий поток : 3018 Кбит/сек
Видео
Формат : AVC
Формат/Информация : Advanced Video Codec
Профиль формата : Main@L3.1
Параметр CABAC формата : Да
Параметр ReFrames формата : 3 кадра
Идентификатор кодека : 7
Продолжительность : 1 ч. 15 м.
Вид битрейта : Постоянный
Битрейт : 2850 Кбит/сек
Ширина : 1280 пикселей
Высота : 720 пикселей
Соотношение сторон : 16:9
Режим частоты кадров : Постоянный
Частота кадров : 25,000 кадров/сек
Цветовое пространство : YUV
Субдискретизация насыщенности : 4:2:0
Битовая глубина : 8 бит
Тип развёртки : Прогрессивная
Бит/(Пиксели*Кадры) : 0.124
Размер потока : 1,51 Гбайт (94%)
Аудио
Формат : AAC
Формат/Информация : Advanced Audio Codec
Профиль формата : LC
Идентификатор кодека : 10
Продолжительность : 1 ч. 15 м.
Битрейт : 157 Кбит/сек
Каналы : 2 канала
Расположение каналов : Front: L R
Частота : 48,0 КГц
Метод сжатия : С потерями
Размер потока : 85,2 Мбайт (5%)
[teatrix.ru].t6545.torrent 
Торрент: Зарегистрирован [ 2015-10-10 17:14 ] · C6A913A0CE42D8CBDF1540AF8F763DC61AD8044A

Скачать .torrent

Скачать

16 KB

Статус: проверено
Скачан: 1 раз
Размер: 1.59 GB
terms.php



Быстрый ответ

Имя:

      
Для отправки сообщений необходимо включить JavaScript
Показать сообщения:    

Текущее время: 03-Дек 07:42

Часовой пояс: UTC + 3


Вы можете начинать темы
Вы можете отвечать на сообщения
Вы не можете редактировать свои сообщения
Вы не можете удалять свои сообщения
Вы не можете голосовать в опросах
Вы не можете прикреплять файлы к сообщениям
Вы можете скачивать файлы