Verbier Festival 2014 - Ernest Bloch; Maurice Ravel; Вайнберг (Weinberg) (Renaud Capuçon - violin, Kirill Troussov - violin, Nobuko Imai - viola, Mischa Maisky - cello, Miklós Perényi - cello, Kirill Gerstein - piano )[2014, Concert,


Статистика раздачи [Обновить пиров]
Размер:  1.17 GB   |    Зарегистрирован:  1 год 1 месяц   |    Скачан:  0 раз

Полного источника не было: Никогда

 
   
 
 
 

[Цитировать]

Verbier Festival 2014 - Ernest Bloch; Maurice Ravel; Вайнберг (Weinberg) (Renaud Capuçon - violin, Kirill Troussov - violin, Nobuko Imai - viola, Mischa Maisky - cello, Miklós Perényi - cello, Kirill Gerstein - piano )[2014, Concert, HDTVRip, 720p]
Год выпуска: 2014
Лейбл: MUSEEC/medici.tv
Страна-производитель: (Verbier, Switzerland)
Жанр: Concert
Продолжительность: 55 м.
Исполнители:
Renaud Capuçon - violin, Kirill Troussov - violin, Nobuko Imai - viola, Mischa Maisky - cello, Miklós Perényi - cello,
Kirill Gerstein - piano
Треклист:
Ernest Bloch (1880 — 1959)
From Jewish Life - Prayer
Maurice Ravel (1875 — 1937)
Kaddish
Моисей Самуилович Вайнберг (Mieczysław Weinberg) (1919 - 1996)
Quintet for piano and strings in F minor, Op. 18
Описание:
Only the second part of the concert will be webcast live on medici.tv.
The second "Exclusive encounters" of this 2014 Edition of the Verbier Festival, with eight world renowned soloists gatherered in a chamber ensemble!
The Verbier Festival is keen on gathering on stage world renowned soloists and have them play together chamber music works. Groups of artists that you will never have the opportunity to see somewhere else, and this is why it is named "exclusive". During this first part of the Verbier Festival 2014 "Exclusive encounters", you will have the opportunity to see Renaud Capuçon, Kirill Troussov, Nobuko Imai, Mischa Maisky, Miklós Perényi, Kirill Gerstein, Lily Maisky perform De la vie juive by Bloch at the Salle des Combins, but also works by Krein and Weinberg.
Качество видео: HDTVRip
Формат/Контейнер: FLV
Видео кодек: H.264
Аудио кодек: AAC
Видео поток: 1280x720, 2850 Кбит/сек, 25,000 кадров/сек, Прогрессивная
Аудио поток: AAC, 157 Кбит/сек, 48,0 КГц, 2 канала

Скриншоты

MediaInfo

Общее
Полное имя : C:\Users\Администратор\Music\verbier-festival 2014\Renaud Capuçon, Kirill Troussov and other - Medici\Renaud Capuçon, Kirill Troussov and other - Medici.FLV
Формат : Flash Video
Размер файла : 1,17 Гбайт
Продолжительность : 55 м.
Общий поток : 3018 Кбит/сек
Видео
Формат : AVC
Формат/Информация : Advanced Video Codec
Профиль формата : Main@L3.1
Параметр CABAC формата : Да
Параметр ReFrames формата : 3 кадра
Идентификатор кодека : 7
Продолжительность : 55 м.
Вид битрейта : Постоянный
Битрейт : 2850 Кбит/сек
Ширина : 1280 пикселей
Высота : 720 пикселей
Соотношение сторон : 16:9
Режим частоты кадров : Постоянный
Частота кадров : 25,000 кадров/сек
Цветовое пространство : YUV
Субдискретизация насыщенности : 4:2:0
Битовая глубина : 8 бит
Тип развёртки : Прогрессивная
Бит/(Пиксели*Кадры) : 0.124
Размер потока : 1,11 Гбайт (94%)
Аудио
Формат : AAC
Формат/Информация : Advanced Audio Codec
Профиль формата : LC
Идентификатор кодека : 10
Продолжительность : 55 м.
Битрейт : 157 Кбит/сек
Каналы : 2 канала
Расположение каналов : Front: L R
Частота : 48,0 КГц
Метод сжатия : С потерями
Размер потока : 62,7 Мбайт (5%)
[teatrix.ru].t6546.torrent 
Торрент: Зарегистрирован [ 2015-10-10 17:14 ] · DEFEA0FD3A1F8D69B92387BD43718FBA1BADA011

Скачать .torrent

Скачать

12 KB

Статус: проверено
Скачан: 0 раз
Размер: 1.17 GB
terms.php



Быстрый ответ

Имя:

      
Для отправки сообщений необходимо включить JavaScript
Показать сообщения:    

Текущее время: 10-Дек 08:03

Часовой пояс: UTC + 3


Вы можете начинать темы
Вы можете отвечать на сообщения
Вы не можете редактировать свои сообщения
Вы не можете удалять свои сообщения
Вы не можете голосовать в опросах
Вы не можете прикреплять файлы к сообщениям
Вы можете скачивать файлы