Verbier Festival 2014 - Rossini; Bellini; Donizetti; Bizet; Poulenc; Delibes; Herbert; Giménez (Pretty Yende - soprano, James Vaughan - piano)[2014, Concert, HDTVRip, 720p]


Статистика раздачи [Обновить пиров]
Размер:  1.47 GB   |    Зарегистрирован:  1 год 1 месяц   |    Скачан:  0 раз

Полного источника не было: Никогда

 
   
 
 
 

[Цитировать]

Verbier Festival 2014 - Rossini; Bellini; Donizetti; Bizet; Poulenc; Delibes; Herbert; Giménez (Pretty Yende - soprano, James Vaughan - piano)[2014, Concert, HDTVRip, 720p]
Год выпуска: 2014
Лейбл: MUSEEC/medici.tv
Страна-производитель: (Verbier, Switzerland)
Жанр: Concert
Продолжительность: 1 ч. 9 м.
Исполнители: Pretty Yende - soprano
James Vaughan - piano
Треклист:
Gioachino Antonio Rossini (1792—1868)
La Promessa (Pietro Metastasio)
Vincenzo Bellini (1801 - 1835)
Vanne o rosa fortunate, Sei Ariette No. 2
Gaetano Donizetti (1797 - 1848)
L’amor funesto
Me voglio fa na casa
Georges Bizet (1838—1875)
Ouvre ton Coeur
Francis Poulenc (1899 — 1963)
Les chemins de l’amour
Léo Delibes (1836 - 1891)
Les Filles de Cadix
Eva dell'acqua
Villanelle
Victor Herbert (1859 – 1924)
Ziegfeld Follies - Weaving my Dreams
Victor Herbert (1859 – 1924)
Mlle. Modiste:
- If I were on the stage
- The Nightingale and the Star
Gerónimo Giménez (1854 – 1923)
La Tempranica:
- Sierras de Granada
- La tarántula é un bisho mú malo
Gerónimo Giménez (1854 – 1923)
El Barbero de Sevilla - Me llaman la primorosa
Описание:
Pretty Yende, the new opera star, will give a recital at the Verbier church, broadcast live on medici.tv!
29 year-old South African soprano Pretty Yende has already won many international competitions, such as Plácido Domingo's prestigious Operalia Competitition, where she won three prizes (the first prize, the zarzuela prize, and the prize from the public) – the final round of the competition was broadcast live on medici.tv. She masters the italian belcantist repertoire, and made her international debut with great success at the New York City Metropolitan Opera last year, accepting a replacement part at the last minute in Le Comte Ory with Juan Diego Flórez. After this, she was a guest at the Theater an der Wien, at the Milan Teatro alla Scala, at the Liceu in Barcelone, at the Festival de Zurich,... In a word, a rising star!
It is the first time that Pretty Yende performs at the Verbier Festival, and medici.tv will be there. With Irish pianist James Vaughan, the soprano gives a recital of Spanish zarzuelas, American musicals, and French and Italian melodies.
Качество видео: HDTVRip
Формат/Контейнер: FLV
Видео кодек: H.264
Аудио кодек: AAC
Видео поток: 1280x720, 2850 Кбит/сек, 25,000 кадров/сек, Прогрессивная
Аудио поток: AAC, 157 Кбит/сек, 48,0 КГц, 2 канала

Скриншоты

MediaInfo

Общее
Полное имя : C:\Users\Администратор\Music\verbier-festival 2014\Pretty Yende and James Vaughan perform melodies from the 19th and 20th centuries - Medici\Pretty Yende and James Vaughan perform melodies from the 19th and 20th centuries - Medici.FLV
Формат : Flash Video
Размер файла : 1,47 Гбайт
Продолжительность : 1 ч. 9 м.
Общий поток : 3018 Кбит/сек
Видео
Формат : AVC
Формат/Информация : Advanced Video Codec
Профиль формата : Main@L3.1
Параметр CABAC формата : Да
Параметр ReFrames формата : 3 кадра
Идентификатор кодека : 7
Продолжительность : 1 ч. 9 м.
Вид битрейта : Постоянный
Битрейт : 2850 Кбит/сек
Ширина : 1280 пикселей
Высота : 720 пикселей
Соотношение сторон : 16:9
Режим частоты кадров : Постоянный
Частота кадров : 25,000 кадров/сек
Цветовое пространство : YUV
Субдискретизация насыщенности : 4:2:0
Битовая глубина : 8 бит
Тип развёртки : Прогрессивная
Бит/(Пиксели*Кадры) : 0.124
Размер потока : 1,39 Гбайт (94%)
Аудио
Формат : AAC
Формат/Информация : Advanced Audio Codec
Профиль формата : LC
Идентификатор кодека : 10
Продолжительность : 1 ч. 9 м.
Битрейт : 157 Кбит/сек
Каналы : 2 канала
Расположение каналов : Front: L R
Частота : 48,0 КГц
Метод сжатия : С потерями
Размер потока : 78,5 Мбайт (5%)
[teatrix.ru].t6547.torrent 
Торрент: Зарегистрирован [ 2015-10-10 17:10 ] · E238F0782DBFCC57837755E9DE0CE91AC7B502E0

Скачать .torrent

Скачать

15 KB

Статус: проверено
Скачан: 0 раз
Размер: 1.47 GB
terms.php



Быстрый ответ

Имя:

      
Для отправки сообщений необходимо включить JavaScript
Показать сообщения:    

Текущее время: 08-Дек 17:16

Часовой пояс: UTC + 3


Вы можете начинать темы
Вы можете отвечать на сообщения
Вы не можете редактировать свои сообщения
Вы не можете удалять свои сообщения
Вы не можете голосовать в опросах
Вы не можете прикреплять файлы к сообщениям
Вы можете скачивать файлы