Verbier Festival 2014 - Haydn; John Field, Debussy, Marc-Andre Hamelin, Franz Liszt (Гайдн, Дебюсси, Лист, Амлен) (Marc-Andre Hamelin - piano)[2014, Concert, HDTVRip, 720p]


Статистика раздачи [Обновить пиров]
Размер:  1.9 GB   |    Зарегистрирован:  1 год 1 месяц   |    Скачан:  1 раз

Полного источника не было: 10 месяцев 6 дней

 
   
 
 
 

[Цитировать]

Verbier Festival 2014 - Haydn; John Field, Debussy, Marc-André Hamelin, Franz Liszt (Marc-André Hamelin - piano)[2014, Concert, HDTVRip, 720p]
Год выпуска: 2014
Лейбл: MUSEEC/medici.tv
Страна-производитель: (Verbier, Switzerland)
Жанр: Concert
Продолжительность: 1 ч. 30 м.
Исполнители: Marc-André Hamelin - piano
Треклист:
Franz Joseph Haydn (1732 - 1809)
Piano Sonata in B flat major, Hob XVI:41
John Field (1782 - 1837)
Unrevealed Andante in E flat major
Claude Debussy (1862 — 1918)
Images, Book I
Marc-André Hamelin (1961)
Variations on a theme by Paganini
Franz Liszt (1811 — 1886)
Poetic and Religious Harmonies, S.173 - The Blessing of God in Solitude
Franz Liszt (1811 — 1886)
Venezia e Napoli, Years of Pilgrimage, Supplement, S.162
Описание:
Marc-André Hamelin recently gave a concert broadcast live on medici.tv, with conductor Kent Nagano and his Orchestre Symphonique de Montréal. Meet him again at the Verbier church for a piano recital!
If the Canadian pianist loves to explore composers like Ornstein, Grainger or even Feinberg, he also likes to perform works better known to the public, such as Haydn, Field, Debussy or even Liszt, for instance. These are exactly the composers he intends to pay tribute to at the Verbier church, in addition to his own composition Variations on a theme by Paganini, sprinkled with references to Beethoven, Rachmaninoff or even Prokofiev.
Marc-André Hamelin has played with the greatest orchestras (the Toronto Symphony Orchestra, the New Jersey Symphony Orchestra, the Royal Scottish National Orchestra, etc.) and in the most prestigious concert halls. This summer, he will play at the Verbier Festival!
Качество видео: HDTVRip
Формат/Контейнер: FLV
Видео кодек: H.264
Аудио кодек: AAC
Видео поток: 1280x720, 2850 Кбит/сек, 25,000 кадров/сек, Прогрессивная
Аудио поток: AAC, 157 Кбит/сек, 48,0 КГц, 2 канала

Скриншоты

MediaInfo

Общее
Полное имя : C:\Users\Администратор\Music\verbier-festival 2014\Marc-André Hamelin plays Haydn, Field, Debussy, Hamelin and Liszt - Medici\Marc-André Hamelin plays Haydn, Field, Debussy, Hamelin and Liszt - Medici.FLV
Формат : Flash Video
Размер файла : 1,90 Гбайт
Продолжительность : 1 ч. 30 м.
Общий поток : 3018 Кбит/сек
Видео
Формат : AVC
Формат/Информация : Advanced Video Codec
Профиль формата : Main@L3.1
Параметр CABAC формата : Да
Параметр ReFrames формата : 3 кадра
Идентификатор кодека : 7
Продолжительность : 1 ч. 30 м.
Вид битрейта : Постоянный
Битрейт : 2850 Кбит/сек
Ширина : 1280 пикселей
Высота : 720 пикселей
Соотношение сторон : 16:9
Режим частоты кадров : Постоянный
Частота кадров : 25,000 кадров/сек
Цветовое пространство : YUV
Субдискретизация насыщенности : 4:2:0
Битовая глубина : 8 бит
Тип развёртки : Прогрессивная
Бит/(Пиксели*Кадры) : 0.124
Размер потока : 1,80 Гбайт (94%)
Аудио
Формат : AAC
Формат/Информация : Advanced Audio Codec
Профиль формата : LC
Идентификатор кодека : 10
Продолжительность : 1 ч. 30 м.
Битрейт : 157 Кбит/сек
Каналы : 2 канала
Расположение каналов : Front: L R
Частота : 48,0 КГц
Метод сжатия : С потерями
Размер потока : 102 Мбайт (5%)
[teatrix.ru].t6548.torrent 
Торрент: Зарегистрирован [ 2015-10-10 17:17 ] · AEB7FB6F539AFB293BCC7D8F48D041DF31890BEF

Скачать .torrent

Скачать

20 KB

Статус: проверено
Скачан: 1 раз
Размер: 1.9 GB
terms.php



Быстрый ответ

Имя:

      
Для отправки сообщений необходимо включить JavaScript
Показать сообщения:    

Текущее время: 04-Дек 00:53

Часовой пояс: UTC + 3


Вы можете начинать темы
Вы можете отвечать на сообщения
Вы не можете редактировать свои сообщения
Вы не можете удалять свои сообщения
Вы не можете голосовать в опросах
Вы не можете прикреплять файлы к сообщениям
Вы можете скачивать файлы