Verbier Festival 2014 - Mahler; Mendelssohn - Op.20; (Малер, Мендельсон) (Ray Chen, Kirill Troussov, Nancy Wu, Dami Kim and other ) [2014, Concert, HDTVRip, 720p]


Статистика раздачи [Обновить пиров]
Размер:  1013 MB   |    Зарегистрирован:  1 год 1 месяц   |    Скачан:  0 раз

Полного источника не было: Никогда

 
   
 
 
 

[Цитировать]

Verbier Festival 2014 - Mahler; Mendelssohn - Op.20
Год выпуска: 2014
Лейбл: MUSEEC/medici.tv
Страна-производитель: (Verbier, Switzerland)
Жанр: Concert
Продолжительность: 46 м.
Исполнители:
Ray Chen - violin
Kirill Troussov - violin
Nancy Wu - violin
Dami Kim - violin
Lawrence Power - alto
Ellen Nisbeth - alto
Vicki Powell - alto
Adrian Brendel - cello
Marie-Elisabeth Hecker - cello
István Várdai - cello
Leigh Mesh - cello
Martin Helmchen - piano
Треклист:
Gustav Mahler (1860 — 1911)
Quartet for piano and strings in A minor
Mendelssohn (1809 - 1847)
Octet in E-flat major, Op.20
Описание:
A constellation of soloists for this first part of the Verbier Festival "Exclusive encounters" broadcast live from the salle des Combins de Verbier
The Verbier Festival is keen on gathering on stage world renowned soloists and have them play together chamber music works. Groups of artists that you will never have the opportunity to see somewhere else, and this is why it is named "exclusive". During this first part of the Verbier Festival 2014 "Exclusive encounters", you will have the opportunity to see Mahler and Mendelssohn.
Качество видео: HDTVRip
Формат/Контейнер: FLV
Видео кодек: H.264
Аудио кодек: AAC
Видео поток: 1280x720, 2850 Кбит/сек, 25,000 кадров/сек, Прогрессивная
Аудио поток: AAC, 157 Кбит/сек, 48,0 КГц, 2 канала

Скриншоты

MediaInfo

Общее
Полное имя : C:\Users\Администратор\Music\verbier-festival 2014\Vesselina Kasarova, Ray Chen, Kirill Troussov, Lawrence Power, Adrian Brendel and friends - Medici\Vesselina Kasarova, Ray Chen, Kirill Troussov, Lawrence Power, Adrian Brendel and friends - Medici.FLV
Формат : Flash Video
Размер файла : 1013 Мбайт
Продолжительность : 46 м.
Общий поток : 3018 Кбит/сек
Видео
Формат : AVC
Формат/Информация : Advanced Video Codec
Профиль формата : Main@L3.1
Параметр CABAC формата : Да
Параметр ReFrames формата : 3 кадра
Идентификатор кодека : 7
Продолжительность : 46 м.
Вид битрейта : Постоянный
Битрейт : 2850 Кбит/сек
Ширина : 1280 пикселей
Высота : 720 пикселей
Соотношение сторон : 16:9
Режим частоты кадров : Постоянный
Частота кадров : 25,000 кадров/сек
Цветовое пространство : YUV
Субдискретизация насыщенности : 4:2:0
Битовая глубина : 8 бит
Тип развёртки : Прогрессивная
Бит/(Пиксели*Кадры) : 0.124
Размер потока : 956 Мбайт (94%)
Аудио
Формат : AAC
Формат/Информация : Advanced Audio Codec
Профиль формата : LC
Идентификатор кодека : 10
Продолжительность : 46 м.
Битрейт : 157 Кбит/сек
Каналы : 2 канала
Расположение каналов : Front: L R
Частота : 48,0 КГц
Метод сжатия : С потерями
Размер потока : 52,8 Мбайт (5%)
[teatrix.ru].t6550.torrent 
Торрент: Зарегистрирован [ 2015-10-10 17:17 ] · 5E8CF9FFCBD3D7085953AEB6417FFADE518BF86D

Скачать .torrent

Скачать

20 KB

Статус: проверено
Скачан: 0 раз
Размер: 1013 MB
terms.php



Быстрый ответ

Имя:

      
Для отправки сообщений необходимо включить JavaScript
Показать сообщения:    

Текущее время: 03-Дек 01:13

Часовой пояс: UTC + 3


Вы можете начинать темы
Вы можете отвечать на сообщения
Вы не можете редактировать свои сообщения
Вы не можете удалять свои сообщения
Вы не можете голосовать в опросах
Вы не можете прикреплять файлы к сообщениям
Вы можете скачивать файлы