Verbier Festival 2014 - Mozart - K.305; Sarasate - Op.21, Op.23,Op.20; Beethoven - Sonata for Violin and Piano No.9 Op. 47; Massenet; Sarasate - Op.43 (Ray Chen - violin, Julien Quentin - piano )[2014, Concert, HDTVRip, 720p]


Статистика раздачи [Обновить пиров]
Размер:  1.85 GB   |    Зарегистрирован:  1 год 1 месяц   |    Скачан:  0 раз

Полного источника не было: Никогда

 
   
 
 
 

[Цитировать]

Verbier Festival 2014
Год выпуска: 2014
Лейбл: MUSEEC/medici.tv
Страна-производитель: (Verbier, Switzerland)
Жанр: Concert
Продолжительность: 1 ч. 27 м.
Исполнители:
Ray Chen - violin
Julien Quentin - piano
Треклист:
Mozart (1756 - 1791)
Sonata for violin and piano in A major, K.305
Pablo de Sarasate (844 - 1908)
Spanish Dances, Op.21 No.2, Habanera – Spanish Dance No.2
Spanish Dances, Op.23 No.1, Playera – Spanish Dance No.5
Zigeunerweisen, Op.20
Ludwig van Beethoven (1770 - 1827)
Sonata for Violin and Piano No.9 in A major, Op. 47 "Kreutzer Sonata"
Jules Émile Frédéric Massenet (1842 - 1912)
Méditation de Thaïs
Pablo de Sarasate (1844 - 1908)
Introduction and Tarantella, Op.43
Описание:
Violinist Ray Chen and pianist Julien Quentin give a concert at the Verbier Church, broadcast live on medici.tv.
Violinist Ray Chen has been awarded the first prize at the International Yehudi Menuhin Competition in 2008, and the first prize at the 2009 Queen Elisabeth Music Competition. For Goetz Richter, he is "One of the most talented violinist in Australia."
Pianist Julien Quentin is a very sought-after soloist and chamber musician. His international tours led him to play in the most prestigious concert halls in Europe, in the USA, in Australia, in Japan, and in Eastern Europe. As a chamber musician, he has worked with such talented artists as Emanuel Ax, Lisa Batiashvili, Measha Brueggergosman, Corey Cerovsek, Michael Collins, Sol Gabetta, David Garrett, Nelson Goerner, Ilya Gringolts, Gary Hoffman, Angelika Kirchschlager, Lawrence Power, Dmitry Sitkovetsky, Sayaka Shoji, Kirill Troussov & Tatjana Vassiljeva.
Together, they will perform Mozart's Sonata for violin and piano in A major de Mozart, and Sarasate's Spanish dances. They will also play his most famous work, Zigeunerweisen, composed for violin and orchestra in 1878. As far as Beethoven is concerned, they will play his Sonata for violin and piano No. 9 in A major, the "Kreutzer Sonata", the composer's best-known – and longest – sonata for violin and piano.
Качество видео: HDTVRip
Формат/Контейнер: FLV
Видео кодек: H.264
Аудио кодек: AAC
Видео поток: 1280x720, 2850 Кбит/сек, 25,000 кадров/сек, Прогрессивная
Аудио поток: AAC, 157 Кбит/сек, 48,0 КГц, 2 канала

Скриншоты

MediaInfo

Общее
Полное имя : C:\Users\Администратор\Music\verbier-festival 2014\Ray Chen and Julien Quentin perform Mozart, Sarasate and Beethoven - Medici\Ray Chen and Julien Quentin perform Mozart, Sarasate and Beethoven - Medici.FLV
Формат : Flash Video
Размер файла : 1,85 Гбайт
Продолжительность : 1 ч. 27 м.
Общий поток : 3018 Кбит/сек
Видео
Формат : AVC
Формат/Информация : Advanced Video Codec
Профиль формата : Main@L3.1
Параметр CABAC формата : Да
Параметр ReFrames формата : 3 кадра
Идентификатор кодека : 7
Продолжительность : 1 ч. 27 м.
Вид битрейта : Постоянный
Битрейт : 2850 Кбит/сек
Ширина : 1280 пикселей
Высота : 720 пикселей
Соотношение сторон : 16:9
Режим частоты кадров : Постоянный
Частота кадров : 25,000 кадров/сек
Цветовое пространство : YUV
Субдискретизация насыщенности : 4:2:0
Битовая глубина : 8 бит
Тип развёртки : Прогрессивная
Бит/(Пиксели*Кадры) : 0.124
Размер потока : 1,75 Гбайт (94%)
Аудио
Формат : AAC
Формат/Информация : Advanced Audio Codec
Профиль формата : LC
Идентификатор кодека : 10
Продолжительность : 1 ч. 27 м.
Битрейт : 157 Кбит/сек
Каналы : 2 канала
Расположение каналов : Front: L R
Частота : 48,0 КГц
Метод сжатия : С потерями
Размер потока : 98,7 Мбайт (5%)
[teatrix.ru].t6551.torrent 
Торрент: Зарегистрирован [ 2015-10-10 17:14 ] · DD963F8FBEC9FAD4B7DDFA6348C81D8A3F0870BA

Скачать .torrent

Скачать

19 KB

Статус: проверено
Скачан: 0 раз
Размер: 1.85 GB
terms.php



Быстрый ответ

Имя:

      
Для отправки сообщений необходимо включить JavaScript
Показать сообщения:    

Текущее время: 04-Дек 02:55

Часовой пояс: UTC + 3


Вы можете начинать темы
Вы можете отвечать на сообщения
Вы не можете редактировать свои сообщения
Вы не можете удалять свои сообщения
Вы не можете голосовать в опросах
Вы не можете прикреплять файлы к сообщениям
Вы можете скачивать файлы