Le Concert de Paris / Концерт в Париже 14.07.2014 (Нетребко / Netrebko, Beczala, Dessay, Garanca, Peretyatko / Перетятько, Brownlee, Naouri, Gatti) [2014, classical, opera, concert, HDTVRip]


Статистика раздачи [Обновить пиров]
Размер:  1.95 GB   |    Зарегистрирован:  1 год 1 месяц   |    Скачан:  0 раз

Полного источника не было: 10 месяцев 11 дней

 
   
 
 
 

[Цитировать]

Le Concert de Paris 14.07.2014 / Концерт в Париже 14.07.2014
Год выпуска: 2014
Страна-производитель: Франция
Жанр: classical, opera, concert
Продолжительность: 01:50:40
Дирижер: Daniele Gatti
Режиссер: François Goetghebeur
Исполнители:
- L'Orchestre National de France
- Le Choeur et la Maitrise de Radio France
- Natalie Dessay (Soprano)
- Anna Netrebko (Soprano)
- Olga Peretyatko (Soprano)
- Elina Garanca (Mezzo)
- Piotr Beczala (Ténor)
- Lawrence Brownlee (Ténor)
- Laurent Naouri (Baryton)
Треклист:
-- Hector Berlioz: "Marche de Rakoczy", La Damnation de Faust
-- Donizetti: "Una Furtiva Lagrima", L'Elisir d'Amore (Lawrence Brownlee)
-- John Williams: Star Wars, Théme Principal
-- Donizetti: "Salut à la France", La Fille du Régiment (Olga Peretyatko)
-- Bizet: "Avec la Garde Montante", Carmen
-- Verdi: "Celeste Aida", Aida (Piotr Beczala)
-- Stölzel: "Bist du bei mir" (Natalie Dessay, Laurent Naouri)
-- Elgar: "Marche no. 1" (Land of Hope and Glory) Pomp and Circumstance
-- Donizetti: "Ah mes amis" et "Pour mon âme", La Fille du Régiment (Lawrence Brownlee)
-- Delibes: "Viens Malika..." (Duo des Fleurs), Lakmé (Olga Peretyatko, Elina Garanca)
-- Puccini: "E Lucevan Le Stelle", Tosca (Piotr Beczala)
-- Wagner: "La Chevauchée des Walkyries", La Walkyrie
-- Giordano: "La Mamma Morta", André Chénier (Anna Netrebko)
-- Offenbach: "Ah que j'aime les militaires", La Grande Duchesse de Gérolstein (Elina Garanca)
-- Legrand: Duo de Guy et Geneviève. Les Parapluies de Cherbourg (Natalie Dessau, Laurent Naouri)
-- Tchaikovsky: Ouverture 1812 (Final)
-- De Lisle/Berlioz: La Marseillaise (Natalie Dessay, Anna Netrebko, Olga Peretyatko, Elina Garanca, Piotr Beczala, Lawrence Brownlee, Laurent Naouri) (спасибо, akacha, за составление треклиста)
Описание: День взятия Бастилии – основной государственный праздник Франции. Отмечают его 14 июля всей страной. Знаменует эта дата начало французской революции, и французы любят праздновать два, а то и три дня подряд. В 2014 году завершался праздник на Марсовых Полях грандиозным бесплатным концертом за Равенство и фейерверком.
Доп. информация: Рип раздачи http://teatrix.ru/viewtopic.php?t=6205 Спасибо Mauricelugher и pbochkov !
Качество видео: HDTVRip
Формат/Контейнер: MKV
Видео кодек: H.264
Аудио кодек: MP2
Видео поток: 960x540 25fps 2085 Kbps
Аудио поток: 48000Hz stereo 384 Kbps

MI

Format : Matroska
Format version : Version 2
File size : 1.95 GiB
Duration : 1h 50mn
Overall bit rate : 2 519 Kbps
Encoded date : UTC 2014-07-24 16:16:53
Writing application : mkvmerge v6.1.0 ('Old Devil') built on Mar 4 2013 09:10:42
Writing library : libebml v1.3.0 + libmatroska v1.4.0
Video
ID : 1
Format : AVC
Format/Info : Advanced Video Codec
Format profile : High@L4.1
Format settings, CABAC : Yes
Format settings, ReFrames : 8 frames
Codec ID : V_MPEG4/ISO/AVC
Duration : 1h 50mn
Bit rate : 2 085 Kbps
Width : 960 pixels
Height : 540 pixels
Display aspect ratio : 16:9
Frame rate mode : Constant
Frame rate : 25.000 fps
Color space : YUV
Chroma subsampling : 4:2:0
Bit depth : 8 bits
Scan type : Progressive
Bits/(Pixel*Frame) : 0.161
Stream size : 1.61 GiB (83%)
Writing library : x264 core 130 r2273 b3065e6
Encoding settings : cabac=1 / ref=8 / deblock=1:-1:-1 / analyse=0x3:0x133 / me=umh / subme=9 / psy=1 / psy_rd=1.00:0.10 / mixed_ref=1 / me_range=24 / chroma_me=1 / trellis=2 / 8x8dct=1 / cqm=0 / deadzone=21,11 / fast_pskip=1 / chroma_qp_offset=-3 / threads=6 / lookahead_threads=1 / sliced_threads=0 / nr=0 / decimate=1 / interlaced=0 / bluray_compat=0 / constrained_intra=0 / bframes=3 / b_pyramid=2 / b_adapt=2 / b_bias=0 / direct=3 / weightb=1 / open_gop=0 / weightp=2 / keyint=250 / keyint_min=25 / scenecut=40 / intra_refresh=0 / rc_lookahead=60 / rc=crf / mbtree=1 / crf=23.0 / qcomp=0.60 / qpmin=0 / qpmax=69 / qpstep=4 / ip_ratio=1.40 / aq=1:1.00
Default : Yes
Forced : No
Audio
ID : 2
Format : MPEG Audio
Format version : Version 1
Format profile : Layer 2
Codec ID : A_MPEG/L2
Codec ID/Hint : MP2
Duration : 1h 50mn
Bit rate mode : Constant
Bit rate : 384 Kbps
Channel(s) : 2 channels
Sampling rate : 48.0 KHz
Compression mode : Lossy
Stream size : 304 MiB (15%)
Language : French
Default : Yes
Forced : No
[teatrix.ru].t6552.torrent 
Торрент: Зарегистрирован [ 2015-10-10 17:17 ] · C4C7A6E775C0CC846FB1A7AB797D1257C9D7F09E

Скачать .torrent

Скачать

20 KB

Статус: проверено
Скачан: 0 раз
Размер: 1.95 GB
terms.php



Быстрый ответ

Имя:

      
Для отправки сообщений необходимо включить JavaScript
Показать сообщения:    

Текущее время: 08-Дек 08:56

Часовой пояс: UTC + 3


Вы можете начинать темы
Вы можете отвечать на сообщения
Вы не можете редактировать свои сообщения
Вы не можете удалять свои сообщения
Вы не можете голосовать в опросах
Вы не можете прикреплять файлы к сообщениям
Вы можете скачивать файлы