Verbier Festival 2014 - Darius Milhaud - Op.81a; Gustav Mahler - Songs of a Wayfarer; Richard Strauss - Op.86; George Frideric Handel - Water Music Overture (Kristjan Jarvi - conductor,Stephan Genz - baritone)[2014, Concert, HDTVRip, 720p]


Статистика раздачи [Обновить пиров]
Размер:  1.66 GB   |    Зарегистрирован:  1 год 1 месяц   |    Скачан:  0 раз

Полного источника не было: Никогда

 
   
 
 
 

[Цитировать]

Verbier Festival 2014
Год выпуска: 2014
Лейбл: MUSEEC/medici.tv
Страна-производитель: (Verbier, Switzerland)
Жанр: Concert
Продолжительность: 1 ч. 18 м.
Исполнители:
Kristjan Järvi - conductor
Stephan Genz - baritone
Треклист:
Darius Milhaud (1892 - 1974)
Creation of the World, Op. 81a
Gustav Mahler (1860 - 1911)
Lieder eines fahrenden Gesellen (Songs of a Wayfarer)
Richard Strauss (1864 - 1949)
Divertimento for small orchestra, Op. 86
George Frideric Handel (1685 - 1759)
Water Music Overture
Описание:
Kristjan Järvi conducts the Verbier Festival Chamber Orchestra for a Milhaud, Mahler and Strauss concert, with baritone Stephan Genz Kristjan Järvi, son of Neeme Järvi and Paavo Järvi's brother, has been music director of the MDR Leipzig Radio Symphony Orchestra since the 2012-2013 season. He is also conductor of the Gstaad Festival Orchestra, the founder of the New York City Absolute Ensemble, the founding conductor of the Baltic Youth Philharmonic (BYP), etc. He is a regular guest of the greatest orchestras, and has a predilection for the post-romantic, modern and contemporary repertoires, for which he is at the pinnacle of his talent.
The German baritone Stephan Genz is known for his Lieder performances. He has received lessons from Hans Joachim Beyer, Elisabeth Schwarzkopf and Dietrich Fischer-Dieskau, and is laureate of many international competitions, partly thanks to his Brahms and Hugo Wolf recitals. In 1999, he was awarded the very prestigious Gramophone Award in London.
La Création du Monde, Darius Milhaud's work written for a one-act ballet, was inspired by Blaise Cendrars's Anthologie nègre. It was composed for a small orchestra of seventeen instruments, with a solo part for saxophone.
Mahler's Lieder eines fahrenden Gesellen will also be performed. Its topic is one of the favorites of the German repertoire: a disappointed and doomed hero, travelling with no purpose, trying to ease his suffering. Divertimento for small orchestra by Richard Strauss will also be played; the composer would have turned 150 this year.
Качество видео: HDTVRip
Формат/Контейнер: FLV
Видео кодек: H.264
Аудио кодек: AAC
Видео поток: 1280x720, 2850 Кбит/сек, 25,000 кадров/сек, Прогрессивная
Аудио поток: AAC, 157 Кбит/сек, 48,0 КГц, 2 канала

Скриншоты

MediaInfo

Общее
Полное имя : D:\verbier-festival 2014\Kristjan Järvi conducts Milhaud, Mahler and R. Strauss – With Stephan Genz - Medici.FLV
Формат : Flash Video
Размер файла : 1,66 Гбайт
Продолжительность : 1 ч. 18 м.
Общий поток : 3018 Кбит/сек
Видео
Формат : AVC
Формат/Информация : Advanced Video Codec
Профиль формата : Main@L3.1
Параметр CABAC формата : Да
Параметр ReFrames формата : 3 кадра
Идентификатор кодека : 7
Продолжительность : 1 ч. 18 м.
Вид битрейта : Постоянный
Битрейт : 2850 Кбит/сек
Ширина : 1280 пикселей
Высота : 720 пикселей
Соотношение сторон : 16:9
Режим частоты кадров : Постоянный
Частота кадров : 25,000 кадров/сек
Цветовое пространство : YUV
Субдискретизация насыщенности : 4:2:0
Битовая глубина : 8 бит
Тип развёртки : Прогрессивная
Бит/(Пиксели*Кадры) : 0.124
Размер потока : 1,57 Гбайт (94%)
Аудио
Формат : AAC
Формат/Информация : Advanced Audio Codec
Профиль формата : LC
Идентификатор кодека : 10
Продолжительность : 1 ч. 18 м.
Битрейт : 157 Кбит/сек
Каналы : 2 канала
Расположение каналов : Front: L R
Частота : 48,0 КГц
Метод сжатия : С потерями
Размер потока : 88,9 Мбайт (5%)
[teatrix.ru].t6553.torrent 
Торрент: Зарегистрирован [ 2015-10-10 17:14 ] · 8D3944719E1C311B4478FDBF4ABC9758DB191F50

Скачать .torrent

Скачать

17 KB

Статус: проверено
Скачан: 0 раз
Размер: 1.66 GB
terms.php



Быстрый ответ

Имя:

      
Для отправки сообщений необходимо включить JavaScript
Показать сообщения:    

Текущее время: 07-Дек 19:19

Часовой пояс: UTC + 3


Вы можете начинать темы
Вы можете отвечать на сообщения
Вы не можете редактировать свои сообщения
Вы не можете удалять свои сообщения
Вы не можете голосовать в опросах
Вы не можете прикреплять файлы к сообщениям
Вы можете скачивать файлы