Verbier Festival 2014 - Berlioz - La damnation de Faust (conductor - Charles Dutoit) [2014, Concert, HDTVrip, 720p]

DL-List and Torrent activity [Update пиров]
Size:  2.67 GB   |    Registered:  1 year   |    Completed:  0 times

Seeder not seen: Never



Verbier Festival 2014 - Charles Dutoit conducts Berlioz - The Damnation of Faust
Год выпуска: 2014
Лейбл: MUSEEC/
Страна-производитель: (Verbier, Switzerland)
Жанр: classical
Продолжительность: 2 ч. 6 м.
Исполнители: Ruxandra Donose (Marguerite)
Charles Castronovo (Faust)
Willard White (Méphistophélès)
Charles Dekeyser (Brander)
Louis-Hector Berlioz (1803 - 1869)
The Damnation of Faust, dramatic legend in four parts, Op. 24
Ruxandra Donose, Charles Castronovo, Willard White and Charles Dekeyser are back at the Salle des Combins, to perform The Faust Damnation with the Collegiate Chorale, performing this year again with the Verbier Festival Orchestra
Faust is a victim of the "malady of his century", the feeling characterized by melancholy and dissatisfaction which marked artistic creation in the beginning of the 19th century and set the basis of the Romantic Movement. He meets Mephistopheles, embodiment of the devil, who introduces him to the young Marguerite. The two young lovers celebrate their feelings in a duet "Love has taken my ravished soul." But in order to avoid disgrace and Marguerite's mother's fury, they have to part.
On stage, talented singers as Romanian Ruxandra Donose (Marguerite), who has performed in the most prestigious theatres and festivals (such as Covent Garden, the Opéra Bastille, the Metropolitan Opera, the Salzburg Festival...) and received the second prize of the ARD International Music Competition in 1990; Charles Castronovo (Faust) who made his debut as Faust in 2011 in Nice, France, and later at the Palau de la Musica, Valencia in 2013. In 2015, he is to sing Faust at the Festspielhaus Baden-Baden and at the Berliner Philharmonie, without forgetting the bass-baritones Willard White and Charles Dekeyser. The American Collegiate Chorale has been familiar with Verbier since 2005 and will be back at the Festival this summer. For this performance, they meet with the Verbier Festival Orchestra and their music director Charles Dutoit.
Качество видео: HDTVRip
Формат/Контейнер: FLV
Видео кодек: H.264
Аудио кодек: AAC
Видео поток: 1280x720, 2850 Кбит/сек, 25,000 кадров/сек, Прогрессивная
Аудио поток: AAC, 157 Кбит/сек, 48,0 КГц, 2 канала



Полное имя : D:\verbier-festival 2014\Charles Dutoit conducts Berlioz- The Damnation of Faust – With Ruxandra Donose (Marguerite)- Medici.FLV
Формат : Flash Video
Размер файла : 2,67 Гбайт
Продолжительность : 2 ч. 6 м.
Общий поток : 3018 Кбит/сек
Формат : AVC
Формат/Информация : Advanced Video Codec
Профиль формата : Main@L3.1
Параметр CABAC формата : Да
Параметр ReFrames формата : 3 кадра
Идентификатор кодека : 7
Продолжительность : 2 ч. 6 м.
Вид битрейта : Постоянный
Битрейт : 2850 Кбит/сек
Ширина : 1280 пикселей
Высота : 720 пикселей
Соотношение сторон : 16:9
Режим частоты кадров : Постоянный
Частота кадров : 25,000 кадров/сек
Цветовое пространство : YUV
Субдискретизация насыщенности : 4:2:0
Битовая глубина : 8 бит
Тип развёртки : Прогрессивная
Бит/(Пиксели*Кадры) : 0.124
Размер потока : 2,52 Гбайт (94%)
Формат : AAC
Формат/Информация : Advanced Audio Codec
Профиль формата : LC
Идентификатор кодека : 10
Продолжительность : 2 ч. 6 м.
Битрейт : 157 Кбит/сек
Каналы : 2 канала
Расположение каналов : Front: L R
Частота : 48,0 КГц
Метод сжатия : С потерями
Размер потока : 142 Мбайт (5%)
Torrent: Registered [ 2015-10-10 17:17 ] · CB5432EA1D2FC8113CA1E7418084803E05BE2BAE

Download .torrent


14 KB

Status: checked
Completed: 0 times
Size: 2.67 GB

Quick Reply


Heads necessary to send messages to enable JavaScript
Display posts:    

Current time is: 25-Oct 06:13

All times are UTC + 3

You can post new topics in this forum
You can reply to topics in this forum
You cannot edit your posts in this forum
You cannot delete your posts in this forum
You cannot vote in polls in this forum
You cannot attach files in this forum
You can download files in this forum