Verbier Festival 2014 - Чайковский - Тема с вариациями фа мажор Op.19 No.6; Рахманинов - Вариации на тему Шопена, Op.22; Schumann - Symphonic Studies, Op.13 (Даниил Трифонов) [2014, Concert, HDTVRip]


Статистика раздачи [Обновить пиров]
Размер:  1.84 GB   |    Зарегистрирован:  1 год 1 месяц   |    Скачан:  0 раз

Полного источника не было: Никогда

 
   
 
 
 

[Цитировать]

Verbier Festival 2014 - Daniil Trifonov: Чайковский, Рахманинов, Schumann [2014 - HDTVRip 720p]
Год выпуска: 2014
Страна-производитель: (Verbier, Switzerland)
Жанр: classical
Продолжительность: 1 ч. 27 м.
Исполнители: Daniil Trifonov
Треклист:
1840 - Чайковский П.И (1893)
Theme and variation in F major Op. 19 No. 6
1873 - Рахманинов С.В (1943)
Variations on a Theme of Chopin, Op.22
1810 - Schumann (1856)
Symphonic Studies, Op. 13
Описание:
For the third year in a row, the young pianist Daniil Trifonov will play at the Verbier Festival. His recital at the salle des Combins will be webcast live on medici.tv.
After making his name on the music scene in 2010 winning the third prize at the prestigious International Frederic Chopin Piano Competition in Warsaw, Daniil Trifonov became laureate of the Tchaikovsky Competition in Moscow in 2011, and won the first prize of the Arthur Rubinstein Piano Competition in Tel- Aviv the same year. Daniil Trifonov then became one of the most sought-after pianists of his generation. A regular guest of the best orchestras and concert halls, Daniil Trifonov received rave reviews from his peers and from the press: in 2011, Martha Argerich declared to the Financial Times: "He has everything and more".
The 23 year-old pianist is invited at the salle des Combins to give a recital of works by Tchaikovsky (Theme and Variations in F Major), Rachmaninov (he will perform his Variations on a theme by Chopin, one of his favorite composers), and Schumann’s Symphonic Etudes .
Качество видео: HDTVRip
Формат/Контейнер: FLV
Видео кодек: H.264
Аудио кодек: AAC
Видео поток: 1280x720, 2850 Кбит/сек, 25,000 кадров/сек, Прогрессивная
Аудио поток: AAC, 157 Кбит/сек, 48,0 КГц, 2 канала

Скриншоты

MediaInfo

Общее
Полное имя : D:\verbier-festival 2014\Daniil Trifonov plays Tchaikovsky, Rachmaninov and Schumann - Medici\Daniil Trifonov plays Tchaikovsky, Rachmaninov and Schumann - Medici.FLV
Формат : Flash Video
Размер файла : 1,84 Гбайт
Продолжительность : 1 ч. 27 м.
Общий поток : 3018 Кбит/сек
Видео
Формат : AVC
Формат/Информация : Advanced Video Codec
Профиль формата : Main@L3.1
Параметр CABAC формата : Да
Параметр ReFrames формата : 3 кадра
Идентификатор кодека : 7
Продолжительность : 1 ч. 27 м.
Вид битрейта : Постоянный
Битрейт : 2850 Кбит/сек
Ширина : 1280 пикселей
Высота : 720 пикселей
Соотношение сторон : 16:9
Режим частоты кадров : Постоянный
Частота кадров : 25,000 кадров/сек
Цветовое пространство : YUV
Субдискретизация насыщенности : 4:2:0
Битовая глубина : 8 бит
Тип развёртки : Прогрессивная
Бит/(Пиксели*Кадры) : 0.124
Размер потока : 1,74 Гбайт (94%)
Аудио
Формат : AAC
Формат/Информация : Advanced Audio Codec
Профиль формата : LC
Идентификатор кодека : 10
Продолжительность : 1 ч. 27 м.
Битрейт : 157 Кбит/сек
Каналы : 2 канала
Расположение каналов : Front: L R
Частота : 48,0 КГц
Метод сжатия : С потерями
Размер потока : 98,2 Мбайт (5%)
[teatrix.ru].t6555.torrent 
Торрент: Зарегистрирован [ 2015-10-10 17:14 ] · 5F3013CBCCA290293FF1C7ECC3A05BBD4529E2FA

Скачать .torrent

Скачать

19 KB

Статус: проверено
Скачан: 0 раз
Размер: 1.84 GB
terms.php



Быстрый ответ

Имя:

      
Для отправки сообщений необходимо включить JavaScript
Показать сообщения:    

Текущее время: 08-Дек 07:03

Часовой пояс: UTC + 3


Вы можете начинать темы
Вы можете отвечать на сообщения
Вы не можете редактировать свои сообщения
Вы не можете удалять свои сообщения
Вы не можете голосовать в опросах
Вы не можете прикреплять файлы к сообщениям
Вы можете скачивать файлы