Verbier Festival 2014 - Щедрин - Москва-Петушки; Mozart - Piano Concerto No. 24; Beethoven - Symphony No. 3 Op. 55 "Eroica";(Gabor Takacs-Nagy - conductor, Stephen Kovacevich - piano)[2014, Concert, HDTVRip, 720p]


Статистика раздачи [Обновить пиров]
Размер:  2.1 GB   |    Зарегистрирован:  1 год 1 месяц   |    Скачан:  0 раз

Полного источника не было: Никогда

 
   
 
 
 

[Цитировать]

Verbier Festival 2014 - Gábor Takács conducts Shchedrin, Mozart and Beethoven [2014, 720p]
Год выпуска: 2014
Страна-производитель: Verbier, Switzerland
Жанр: classical
Продолжительность: 1 ч. 39 м.
Исполнители:
Verbier Festival Chamber Orchestra
Gabor Takacs-Nagy conductor
Треклист:
Родион Константинович Щедрин
Moscow-Petushki, Fragment dramatique pour orchestre (commission of the Verbier Festival)
Joannes Chrysostomus Wolfgang Theophilus Mozart (1756 - 1791)
Piano Concerto No. 24 in C minor, K. 491
Johann Sebastian Bach (1685 - 1750)
Partita No. 4 in D major, BWV 828 5. Sarabande
Ludwig van Beethoven (1770 - 1827)
Symphony No. 3 in E-flat major, Op. 55 "Eroica"
Описание:
After Charles Dutoit and the Verbier Festival Orchestra, it is, like every
year, Gabor Takacs-Nagy's turn to perform at the Salle des Combins, with his
Verbier Festival Chamber Orchestra! Live from the Verbier Festival 2014, on
medici.tv.
Gabor Takacs-Nagy, chamber music specialist and music director of the Verbier
Festival Chamber Orchestra since 2007, will start the concert with a work by
the Russian composer Rodion Shchedrin, Moscow-Petushki, commissioned by the
Verbier Festival. They will also perform Mozart's Concerto for piano and
orchestra No. 24 by Mozart, with the pianist Stephen Kovacevich, as well as
Beethoven's Eroica symphony.
Качество видео: HDTVRip
Формат/Контейнер: FLV
Видео кодек: H.264
Аудио кодек: AAC
Видео поток: HDTVRip, FLV, H.264, AAC 1280x720, 25, Прогрессивная
Аудио поток: AAC, 157 Кбит/сек, 48,0 КГц, 2 канала

Скриншоты

MediaInfo

Общее
Полное имя : D:\verbier-festival 2014\Gábor Takács-Nagy conducts Shchedrin, Mozart and Beethoven – With Stephen Kovacevich - Medici\Gábor Takács-Nagy conducts Shchedrin, Mozart and Beethoven – With Stephen Kovacevich - Medici.FLV
Формат : Flash Video
Размер файла : 2,10 Гбайт
Продолжительность : 1 ч. 39 м.
Общий поток : 3018 Кбит/сек
Видео
Формат : AVC
Формат/Информация : Advanced Video Codec
Профиль формата : Main@L3.1
Параметр CABAC формата : Да
Параметр ReFrames формата : 3 кадра
Идентификатор кодека : 7
Продолжительность : 1 ч. 39 м.
Вид битрейта : Постоянный
Битрейт : 2850 Кбит/сек
Ширина : 1280 пикселей
Высота : 720 пикселей
Соотношение сторон : 16:9
Режим частоты кадров : Постоянный
Частота кадров : 25,000 кадров/сек
Цветовое пространство : YUV
Субдискретизация насыщенности : 4:2:0
Битовая глубина : 8 бит
Тип развёртки : Прогрессивная
Бит/(Пиксели*Кадры) : 0.124
Размер потока : 1,99 Гбайт (94%)
Аудио
Формат : AAC
Формат/Информация : Advanced Audio Codec
Профиль формата : LC
Идентификатор кодека : 10
Продолжительность : 1 ч. 39 м.
Битрейт : 157 Кбит/сек
Каналы : 2 канала
Расположение каналов : Front: L R
Частота : 48,0 КГц
Метод сжатия : С потерями
Размер потока : 112 Мбайт (5%)
[teatrix.ru].t6556.torrent 
Торрент: Зарегистрирован [ 2015-10-10 17:14 ] · 9AB7EBE0E2CC4AA398953BAFFB817CE29A99300F

Скачать .torrent

Скачать

11 KB

Статус: проверено
Скачан: 0 раз
Размер: 2.1 GB
terms.php



Быстрый ответ

Имя:

      
Для отправки сообщений необходимо включить JavaScript
Показать сообщения:    

Текущее время: 03-Дек 09:43

Часовой пояс: UTC + 3


Вы можете начинать темы
Вы можете отвечать на сообщения
Вы не можете редактировать свои сообщения
Вы не можете удалять свои сообщения
Вы не можете голосовать в опросах
Вы не можете прикреплять файлы к сообщениям
Вы можете скачивать файлы