Verbier Festival 2014 - Чайковский - Piano Concerto No. 1; Schumann - Kinderszenen Op. 15 1(encore); Brahms - Symphony No. 1 in C minor, Op. 68 (Charles Dutoit - conductor, Martha Argerich - piano) [2014, Concert, HDTVrip, 720p]


Статистика раздачи [Обновить пиров]
Размер:  2.5 GB   |    Зарегистрирован:  1 год 1 месяц   |    Скачан:  0 раз

Полного источника не было: Никогда

 
   
 
 
 

[Цитировать]

Martha Argerich and Charles Dutoit open the Verbier Festival 2014
Год выпуска: 2014
Лейбл: Verbier Festival
Страна-производитель: Salle des Combins (Verbier, Switzerland)
Жанр: Concert
Продолжительность: 1 ч. 58 м.
Исполнители: Martha Argerich and Charles Dutoit, Verbier Festival Orchestras.
Треклист:
1875 - Ravel Maurice (1937)
Rapsodie espagnole
1840 - Чайко́вский П.И (1893)
Piano Concerto No. 1 in B-flat minor, Op. 23
1810 - Schumann (1856) -encore
Kinderszenen (Scenes from Childhood), Op. 15 1. Von fremden Landern und Menschen
1833 - Brahms (1897)
Symphony No. 1 in C minor, Op. 68
Описание:
Martha Argerich and Charles Dutoit open the Verbier Festival 2014, with a concert webcast live on medici.tv. For the first time in ten years, Martha Argerich will perform Tchaikovsky's Piano Concerto No. 1.
Martha Argerich has been dominating the piano scene since the 1960s thanks to a wide and varied repertoire, never conformist. Her phenomenal technique and great sensitivity have allowed her to stamp her mark on the most demanding works of the repertoire. She is very familiar with the Verbier Festival, and she will open the 2014 edition with the famous Concerto for piano No. 1 by Tchaikovsky, with conductor Charles Dutoit, musical director of the Verbier Festival Orchestra.
This long-awaited opening concert of the Verbier Festival 2014 presents Maurice Ravel's Spanish Rhapsody, composed in 1907 (on year before Debussy's Iberia), Tchaikovsky's first Concerto for piano, and Brahms's first symphony (Beethoven's "Tenth", according to Hans von Bulow).
Качество видео: HDTVRip
Формат/Контейнер: FLV
Видео кодек: H.264
Аудио кодек: AAC
Видео поток: 1280x720, 25, Прогрессивная
Аудио поток: AAC, 157 Кбит/сек, 48,0 КГц, 2 канала

Скриншоты

MediaInfo

Общее
Полное имя : D:\verbier-festival 2014\Charles Dutoit conducts Ravel, Tchaikovsky and Brahms – With Martha Argerich - Medici\Charles Dutoit conducts Ravel, Tchaikovsky and Brahms – With Martha Argerich - Medici.FLV
Формат : Flash Video
Размер файла : 2,50 Гбайт
Продолжительность : 1 ч. 58 м.
Общий поток : 3018 Кбит/сек
Видео
Формат : AVC
Формат/Информация : Advanced Video Codec
Профиль формата : Main@L3.1
Параметр CABAC формата : Да
Параметр ReFrames формата : 3 кадра
Идентификатор кодека : 7
Продолжительность : 1 ч. 58 м.
Вид битрейта : Постоянный
Битрейт : 2850 Кбит/сек
Ширина : 1280 пикселей
Высота : 720 пикселей
Соотношение сторон : 16:9
Режим частоты кадров : Постоянный
Частота кадров : 25,000 кадров/сек
Цветовое пространство : YUV
Субдискретизация насыщенности : 4:2:0
Битовая глубина : 8 бит
Тип развёртки : Прогрессивная
Бит/(Пиксели*Кадры) : 0.124
Размер потока : 2,36 Гбайт (94%)
Аудио
Формат : AAC
Формат/Информация : Advanced Audio Codec
Профиль формата : LC
Идентификатор кодека : 10
Продолжительность : 1 ч. 58 м.
Битрейт : 157 Кбит/сек
Каналы : 2 канала
Расположение каналов : Front: L R
Частота : 48,0 КГц
Метод сжатия : С потерями
Размер потока : 133 Мбайт (5%)
[teatrix.ru].t6557.torrent 
Торрент: Зарегистрирован [ 2015-10-10 17:10 ] · ABEFB2B0DA997E17FEAEB42893CD063A6206E150

Скачать .torrent

Скачать

13 KB

Статус: проверено
Скачан: 0 раз
Размер: 2.5 GB
terms.php



Быстрый ответ

Имя:

      
Для отправки сообщений необходимо включить JavaScript
Показать сообщения:    

Текущее время: 09-Дек 16:29

Часовой пояс: UTC + 3


Вы можете начинать темы
Вы можете отвечать на сообщения
Вы не можете редактировать свои сообщения
Вы не можете удалять свои сообщения
Вы не можете голосовать в опросах
Вы не можете прикреплять файлы к сообщениям
Вы можете скачивать файлы