Новый год в компании с Владимиром Спиваковым [2013, Classic music, IPTVRip]


Статистика раздачи [Обновить пиров]
Размер:  2.18 GB   |    Зарегистрирован:  1 год 1 месяц   |    Скачан:  0 раз

Полного источника не было: Никогда

 
   
 
 
 

[Цитировать]

Новый год в компании с Владимиром Спиваковым- Год выпуска: 2013
Страна: Россия
Жанр: Classic music
Продолжительность: 02:40:41-Режиссер-постановщик: Дмитрий Бертман-Ведущие: Владимир Спиваков, Святослав Бэлза, Сати Спивакова, Денис Мацуев-Описание: «Новогоднее шоу – 2013» на телеканале «Культура» с участием любимых артистов и музыкантов.
Второй год подряд поддерживать новогоднее настроение зрителям помогает маэстро Владимир Спиваков и его гости. Распорядителями этого новогоднего бала стали Святослав Бэлза и Сати Спивакова.
Классика – это скучно? Вот уж нет! Маэстро Спиваков не боится перевоплощений и игр с классической музыкой. В его орекстре становятся солистами Олег Табаков, Леонид Рошаль и Александр Ширвиндт, играющие на... свистульках. С «Виртуозами Москвы» поет Земфира. Сам Владимир Теодорович дирижирует оркестром в образе Чайковского и охотится на шмеля.
Вечер богат на сюрпризы, скучать телезрителям не придется.
Среди гостей вечера: Олег Табаков, Хибла Герзмава, Николай Луганский, Альбина Шагимуратова, Денис Мацуев, Олег Меньшиков, Земфира, Михаил Ефремов, Сергей Полунин и многие другие. Весь новогодний вечер на сцене – два знаменитых коллектива Владимира Спивакова: «Виртуозы Москвы» и Национальный Филармонический оркестр России.-Доп. информация: Запись в Московском международном Доме музыки.-Качество: IPTVRip
Формат: AVI
Видео: Xvid, 704x400 (16:9), 25 fps, ~1741 Kbps (0.247 bit/pixel)
Аудио: AC3, 48 KHz, 2 ch, 192 Kbps-

MediaInfo

General
Complete name : L:\Новый год в компании с Владимиром Спиваковым (2013) [IPTVRip].avi
Format : AVI
Format/Info : Audio Video Interleave
Format profile : OpenDML
File size : 2.18 GiB
Duration : 2h 40mn
Overall bit rate : 1 945 Kbps
Movie name : Новый год в компании с Владимиром Спиваковым (2013)
Director : Дмитрий Бертман
Writing application : VirtualDubMod 1.5.10.3 | www.virtualdub-fr.org || (build 2550/release)
Writing library : VirtualDubMod build 2550/release
Comment : IPTVRip by moon_c@t (rutracker.org)
Video
ID : 0
Format : MPEG-4 Visual
Format profile : Advanced Simple@L5
Format settings, BVOP : 1
Format settings, QPel : No
Format settings, GMC : No warppoints
Format settings, Matrix : Custom
Codec ID : DX50
Codec ID/Hint : DivX 5
Duration : 2h 40mn
Bit rate : 1 741 Kbps
Width : 704 pixels
Height : 400 pixels
Display aspect ratio : 16:9
Frame rate : 25.000 fps
Color space : YUV
Chroma subsampling : 4:2:0
Bit depth : 8 bits
Scan type : Progressive
Compression mode : Lossy
Bits/(Pixel*Frame) : 0.247
Stream size : 1.95 GiB (89%)
Writing library : XviD 65
Audio
ID : 1
Format : AC-3
Format/Info : Audio Coding 3
Mode extension : CM (complete main)
Format settings, Endianness : Big
Codec ID : 2000
Duration : 2h 40mn
Bit rate mode : Constant
Bit rate : 192 Kbps
Channel(s) : 2 channels
Channel positions : Front: L R
Sampling rate : 48.0 KHz
Bit depth : 16 bits
Compression mode : Lossy
Stream size : 221 MiB (10%)
Alignment : Split accross interleaves
Interleave, duration : 40 ms (1.00 video frame)
Interleave, preload duration : 500 ms
-Новый год в компании с Владимиром Спиваковым (2012) [IPTVRip]
[teatrix.ru].t6565.torrent 
Торрент: Зарегистрирован [ 2015-10-10 17:17 ] · 456FA846024A9D6B77302256B580D4CB76C1FFD5

Скачать .torrent

Скачать

12 KB

Статус: проверено
Скачан: 0 раз
Размер: 2.18 GB
terms.php



Быстрый ответ

Имя:

      
Для отправки сообщений необходимо включить JavaScript
Показать сообщения:    

Текущее время: 03-Дек 20:44

Часовой пояс: UTC + 3


Вы можете начинать темы
Вы можете отвечать на сообщения
Вы не можете редактировать свои сообщения
Вы не можете удалять свои сообщения
Вы не можете голосовать в опросах
Вы не можете прикреплять файлы к сообщениям
Вы можете скачивать файлы