Рождественский концерт в Базилике Святого Франциска в Ассизи / Concerto di Natale dalla Basilica Superiore di San Francesco da Assisi (Arisa, Il Volo, Paul Sorvino, Stacy Francis, Steven Mercurio) [2013, Classical Crossover, DVB]


Статистика раздачи [Обновить пиров]
Размер:  1.74 GB   |    Зарегистрирован:  1 год 1 месяц   |    Скачан:  0 раз

Полного источника не было: 27 дней

 
   
 
 
 

[Цитировать]


-
-Arisa, IL VOLO, Paul Sorvino, Stacy Francis - Concerto di Natale
Live dalla Basilica Superiore di San Francesco da Assisi
-- -Жанр: Classical Crossover | Релиз: 25.12.2013 | Страна : Italia
Продолжительность: 50:28 | Канал: RAI 1 | Релизер: dimalysyi
--
01. Gruber: Astro del Ciel - IL VOLO
02. Cohen: Hallelujah - Arisa
03. Schubert: Ave Maria - IL VOLO
04. Bizet: Agnus Dei - Ivano Constantino & Il Coro&Orchestra
05. Torme: The Christmas Song - IL VOLO & Stacy Francis
06. Martin: Have Yourself A Merry Little Christmas - Paul Sorvino
07. Adam: O Holy Night - IL VOLO
08. Martinet: Petit Papa Noel - Stacy Francis
09. Franck: Panis angelicus - IL VOLO
10. Handel: Hallelujah - Il Coro&Orchestra
11. Berlin: Bianco Natale (White Christmas) - IL VOLO
12. Lennon: Happy Christmas (War Is Over)

Оркестр : Orchestra Sinfonica Nazionale della RAI под управлением Steven Mercurio
Хор : Coro dell'Accademia Nazionale di Santa Cecilia под управлением Ciro Visco
Описание : Традиционный рождественский концерт, ежегодно проходящий в одном из крупнейших католических храмов – Базилике Святого Франциска в Ассизи (Италия). Зрители смогут увидеть натурные съемки фресок и интерьеров Базилики, внесенные в список всемирного наследия ЮНЕСКО и включенные в телеверсию концерта. Концерт снят 14 декабря 2013 года. Особая благодарность dimalysyi за исходник концерта!
Качество : DVB
Формат : MPEG-TS
Видео кодек : MPEG2
Видео : PAL 4:3 (720x576) - 4 406 kbps
Аудио : Italian (192 kbps, 2 ch)

Инфо по файлу

D:\Concerto di Natale da Assisi 2013 [by dimalysyi].ts General #1 ID : 1 Complete name : D:\Concerto di Natale da Assisi 2013 [by dimalysyi].ts Format : MPEG-TS File size : 1.74 GiB Duration : 50mn 28s Overall bit rate : 4 940 Kbps Maximum Overall bit rate : 35.5 Mbps Video #4113 ID : 4113 (0x1011) Menu ID : 1 (0x1) Format : MPEG Video Format version : Version 2 Format profile : Main@Main Format settings, Matrix : Default Duration : 50mn 28s Bit rate mode : Variable Bit rate : 4 406 Kbps Nominal bit rate : 10 000 Kbps Width : 720 pixels Height : 576 pixels Display aspect ratio : 4:3 Frame rate : 25.000 fps Standard : PAL Colorimetry : 4:2:0 Scan type : Interlaced Scan order : Top Field First Bits/(Pixel*Frame) : 0.425 Stream size : 1.55 GiB (89%) Audio #4352 ID : 4352 (0x1100) Menu ID : 1 (0x1) Format : MPEG Audio Format version : Version 1 Format profile : Layer 2 Duration : 50mn 28s Bit rate mode : Constant Bit rate : 192 Kbps Channel(s) : 2 channels Sampling rate : 48.0 KHz Resolution : 16 bits Video delay : 5ms Stream size : 69.3 MiB (4%) Language : Italian

-
[teatrix.ru].t6568.torrent 
Торрент: Зарегистрирован [ 2015-10-10 17:10 ] · E995594E8E35FD02322C3FE45A027F6282AB968B

Скачать .torrent

Скачать

18 KB

Статус: проверено
Скачан: 0 раз
Размер: 1.74 GB
terms.php



Быстрый ответ

Имя:

      
Для отправки сообщений необходимо включить JavaScript
Показать сообщения:    

Текущее время: 03-Дек 07:36

Часовой пояс: UTC + 3


Вы можете начинать темы
Вы можете отвечать на сообщения
Вы не можете редактировать свои сообщения
Вы не можете удалять свои сообщения
Вы не можете голосовать в опросах
Вы не можете прикреплять файлы к сообщениям
Вы можете скачивать файлы