Что-то в воздухе / Après mai / Apres mai (Оливье Ассайас / Olivier Assayas) [2012, Франция, драма, HDTV 1080i] MVO (1 канал)


 

[Цитировать]

Что-то в воздухе / Après mai- Страна: Франция
Жанр: Драма
Год выпуска: 2012
Продолжительность: 01:52:20-Перевод: Профессиональный (многоголосый закадровый) - Первый канал-Режиссер: Оливье Ассайас / Olivier Assayas
В ролях: Клеман Метейе, Лола Кретон, Феликс Арман, Кароль Комб, Индия Менуэз, Уго Конзельманн, Мартен Лоизильон, Андре Маркон, Джонни Флинн- -Описание: 1971 год. На улицах Парижа бушуют юные поклонники Мао, Троцкого и Ленина, устраивающие демонстрации в защиту арестованных студентов и расписывающие стены дерзкими лозунгами. Полиция свирепствует и яростно избивает протестующих под популярные в то время хиты Дэвида Аллена, Майка Ратледжа и Роберта Уайта. Cтудент Жиль разрывается между политической борьбой, нахлынувшей любовью к девушке и любовью к кино, которое в конце концов он и сделает своим главным оружием.-Дополнительная информация: В нескольких местах присутствует небольшое рассыпание картинки.-Семпл-Тип релиза: HDTV 1080i
Контейнер: TS
Видео: AVC | 1920x1080 [16:9] | 25 fps | 10.8 Mbps
Аудио: Русский | MP2 | 2 ch | 48.0 KHz | 192 kbps

MediaInfo

GeneralID : 1 (0x1)Complete name : F:\Video\Apres mai [Olivier Assayas] [2012] [HDTV].tsFormat : MPEG-TSFile size : 9.05 GiBDuration : 1h 52mnOverall bit rate mode : VariableOverall bit rate : 11.5 Mbps
VideoID : 67 (0x43)Menu ID : 1 (0x1)Format : AVCFormat/Info : Advanced Video CodecFormat profile : Main@L4Format settings, CABAC : YesFormat settings, ReFrames : 4 framesCodec ID : 27Duration : 1h 52mnBit rate : 10.8 MbpsWidth : 1 920 pixelsHeight : 1 080 pixelsDisplay aspect ratio : 16:9Frame rate : 25.000 fpsStandard : ComponentColor space : YUVChroma subsampling : 4:2:0Bit depth : 8 bitsScan type : InterlacedScan order : Top Field FirstBits/(Pixel*Frame) : 0.208Stream size : 8.45 GiB (93%)Color range : LimitedColor primaries : BT.709Transfer characteristics : BT.709Matrix coefficients : BT.709
AudioID : 68 (0x44)Menu ID : 1 (0x1)Format : MPEG AudioFormat version : Version 1Format profile : Layer 2Codec ID : 3Duration : 1h 52mnBit rate mode : ConstantBit rate : 192 KbpsChannel(s) : 2 channelsSampling rate : 48.0 KHzCompression mode : LossyStream size : 154 MiB (2%)Language : Russian

Скриншот названия фильма

Скриншоты




Показать сообщения:    

Текущее время: 06-Дек 17:09

Часовой пояс: UTC + 3


Вы не можете начинать темы
Вы не можете отвечать на сообщения
Вы не можете редактировать свои сообщения
Вы не можете удалять свои сообщения
Вы не можете голосовать в опросах
Вы не можете прикреплять файлы к сообщениям
Вы не можете скачивать файлы