Самоубийцы: История любви / Wristcutters: A Love Story (Горан Дукич / Goran Dukic) [2006, США, Великобритания, фэнтези, драма, мелодрама, комедия, WEB-DL 720p] DVO (R5) + Sub Rus, Eng + Original Eng


 

[Цитировать]

Самоубийцы: История любви / Wristcutters: A Love Story
Страна: США, Великобритания
Студия: Adam Sherman, Crispy Films и др.
Жанр: фэнтези, драма, мелодрама, комедия
Год выпуска: 2006
Продолжительность: 01:28:04
Перевод: Профессиональный (двухголосый закадровый) R5
Cубтитры: русские(2 вида), английские
Оригинальная аудиодорожка: английский
Режиссер: Горан Дукич / Goran Dukic
В ролях: Патрик Фьюджит, Шаннин Соссамон, Ши Уигхэм, Лесли Бибб, Марк Бун Джуниор, Абрахам Бенруби, Камерон Бауэн, Микал П. Лазарев, Чейз Эллисон, Клейн Кроуфорд, Том Уэйтс
Описание: После того как молодой парень по имени Зия свел счеты с реальностью, он попал в безумный загробный мир, уготованный самоубийцам. Это мир унизительной работы, грязных баров и старых музыкальных автоматов. Получив работу в пиццерии, Зия понимает, что его нынешняя жизнь не так уж отличается от жизни прежней… лишь немного хуже… Но всё меняется, когда он узнает, что девушка, которую он любил, тоже покончила жизнь самоубийством. И Зия отправляется в путешествие по загробному миру, чтобы найти любовь своей земной жизни.

Sample
Тип релиза: WEB-DL 720p
Контейнер: MKV
Видео: MPEG4 AVC Video, H264, 16:9, 1280x720, 23.976 fps, 3936 kbps
Аудио: Russian (AC3, 6 ch, 384 kbps, 16 bits, 48.0 KHz) - DVO
Аудио 2: English (AC3, 6 ch, 384 kbps, 16 bits, 48.0 KHz) - оригинал
Формат субтитров: softsub (SRT)

MediaInfo

General
Unique ID : 231643342822553618980955969022565059143 (0xAE44E291B7FEE3A4B6ABA98C48548A47)
Complete name : K:\Wristcutters A Love Story 2006 WEB-DL 720p.mkv
Format : Matroska
Format version : Version 4 / Version 2
File size : 2.95 GiB
Duration : 1h 28mn
Overall bit rate : 4 800 Kbps
Encoded date : UTC 2015-09-21 10:25:06
Writing application : mkvmerge v6.1.0 ('Old Devil') built on Mar 2 2013 14:32:37
Writing library : libebml v1.3.0 + libmatroska v1.4.0
Video
ID : 1
Format : AVC
Format/Info : Advanced Video Codec
Format profile : High@L3.1
Format settings, CABAC : No
Format settings, ReFrames : 2 frames
Codec ID : V_MPEG4/ISO/AVC
Duration : 1h 28mn
Bit rate : 3 936 Kbps
Width : 1 280 pixels
Height : 720 pixels
Display aspect ratio : 16:9
Frame rate mode : Constant
Frame rate : 23.976 fps
Color space : YUV
Chroma subsampling : 4:2:0
Bit depth : 8 bits
Scan type : Progressive
Bits/(Pixel*Frame) : 0.178
Stream size : 2.42 GiB (82%)
Language : English
Default : Yes
Forced : No
Color primaries : BT.709
Transfer characteristics : BT.709
Matrix coefficients : BT.709
Audio #1
ID : 2
Format : AC-3
Format/Info : Audio Coding 3
Mode extension : CM (complete main)
Format settings, Endianness : Big
Codec ID : A_AC3
Duration : 1h 28mn
Bit rate mode : Constant
Bit rate : 384 Kbps
Channel count : 6 channels
Channel positions : Front: L C R, Side: L R, LFE
Sampling rate : 48.0 KHz
Bit depth : 16 bits
Compression mode : Lossy
Stream size : 242 MiB (8%)
Language : Russian
Default : Yes
Forced : No
Audio #2
ID : 3
Format : AC-3
Format/Info : Audio Coding 3
Mode extension : CM (complete main)
Format settings, Endianness : Big
Codec ID : A_AC3
Duration : 1h 28mn
Bit rate mode : Constant
Bit rate : 384 Kbps
Channel count : 6 channels
Channel positions : Front: L C R, Side: L R, LFE
Sampling rate : 48.0 KHz
Bit depth : 16 bits
Compression mode : Lossy
Stream size : 242 MiB (8%)
Language : English
Default : No
Forced : No
Text #1
ID : 4
Format : UTF-8
Codec ID : S_TEXT/UTF8
Codec ID/Info : UTF-8 Plain Text
Title : Rus 1
Language : Russian
Default : No
Forced : No
Text #2
ID : 5
Format : UTF-8
Codec ID : S_TEXT/UTF8
Codec ID/Info : UTF-8 Plain Text
Title : Rus 2
Language : Russian
Default : No
Forced : No
Text #3
ID : 6
Format : UTF-8
Codec ID : S_TEXT/UTF8
Codec ID/Info : UTF-8 Plain Text
Language : English
Default : No
Forced : No
Menu
00:00:00.000 : en:Arrival
00:06:50.000 : en:Stories
00:17:20.000 : en:First Beer
00:29:56.000 : en:P.I.C.
00:34:37.000 : en:Eavesdrop
00:44:12.000 : en:Desiree
00:52:59.000 : en:T-Bone
01:01:07.000 : en:Beach
01:06:21.000 : en:King
01:16:12.000 : en:Sent Back
01:21:14.000 : en:High Places
01:24:54.000 : en:End Credits

Скриншоты




Показать сообщения:    

Текущее время: 03-Дек 05:24

Часовой пояс: UTC + 3


Вы не можете начинать темы
Вы не можете отвечать на сообщения
Вы не можете редактировать свои сообщения
Вы не можете удалять свои сообщения
Вы не можете голосовать в опросах
Вы не можете прикреплять файлы к сообщениям
Вы не можете скачивать файлы