Продавец четырех времен года / Handler der vier Jahreszeiten (Райнер Вернер Фассбиндер / Rainer Werner Fassbinder) [1971, Германия (ФРГ), драма, BDRip 720p] [Criterion Collection] DVO + VO + Sub (Rus, Eng) + Original Ger


 

[Цитировать]

Продавец четырех времен года / Handler der vier Jahreszeiten
Страна: Германия (ФРГ)
Жанр: драма
Год выпуска: 1971
Продолжительность: 01:28:45
Перевод: Профессиональный (двухголосый закадровый)
Перевод: Одноголосый закадровый, женский голос
Cубтитры: русские, английские
Оригинальная аудиодорожка: немецкий-Режиссер: Райнер Вернер Фассбиндер / Rainer Werner Fassbinder
В ролях: Ханс Хиршмюллер, Ирм Херманн, Ханна Шигулла, Андреа Шёбер, Густи Крайссль, Клаус Лёвитч, Карл Шейдт, Ингрид Кавен, Курт Рааб, Хайди Саймон, Петер Чатель, Эльга Сорбас, Лило Пемпайт, Мариан Зайдовски, Вальтер Зедльмайр
Описание: После военной службы Ганс вернулся в город и был неприветливо встречен своей буржуазной семьей. Родители не одобряют его образа жизни, и Ганс уходит от них и становится уличным продавцом фруктов. Неудачи преследуют его, заставляя искать утешение в стакане. После пережитого сердечного приступа бизнес Ганса наконец-то начинает приносить доход, однако, чем больше денег он приносит в семью, тем более подавленным становится. В один прекрасный день он решает споить себя до смерти.
IMDb || КиноПоиск-Тип релиза: BDRip 720p
Контейнер: MKV
Видео: x264/AVC, 986x720 at 23.976 fps, 11572 kbps
Аудио#1: Russian: 48 kHz, AC3, 2.0 ch, 192 kbps
Аудио#2: Russian: 48 kHz, AC3, 2.0 ch, 192 kbps
Аудио#3: German: 48 kHz, FLAC, 1.0 ch, 246 kbps
Аудио#4: English: 48 kHz, AC3, 1.0 ch, 192 kbps |Комментарии Вима Вендерса
Формат субтитров: softsub (SRT)
Сэмпл

Дополнительно

Переводы доступны благодаря Jinnkeit.

MediaInfo

General
Unique ID : 231288909168613112181891106961040531708 (0xAE009FA411BEF915AB73A5161266E0FC)
Complete name : Handler der vier Jahreszeiten.1971.Criterion.720p.rutracker.mkv
Format : Matroska
Format version : Version 2
File size : 7.69 GiB
Duration : 1h 28mn
Overall bit rate mode : Variable
Overall bit rate : 12.4 Mbps
Movie name : Release for RuTracker
Writing application : mkvmerge v5.0.1 ('Es ist Sommer') built on Nov 6 2011 16:23:40
Writing library : libebml v1.2.2 + libmatroska v1.3.0
Video
ID : 1
Format : AVC
Format/Info : Advanced Video Codec
Format profile : High@L4.1
Format settings, CABAC : Yes
Format settings, ReFrames : 11 frames
Codec ID : V_MPEG4/ISO/AVC
Duration : 1h 28mn
Width : 986 pixels
Height : 720 pixels
Display aspect ratio : 4:3
Frame rate mode : Constant
Frame rate : 23.976 fps
Color space : YUV
Chroma subsampling : 4:2:0
Bit depth : 8 bits
Scan type : Progressive
Title : Handler der vier Jahreszeiten.1971.Criterion.720p.rutracker
Writing library : x264 core 146 r2538 121396c
Encoding settings : cabac=1 / ref=11 / deblock=1:-3:-3 / analyse=0x3:0x113 / me=umh / subme=11 / psy=1 / psy_rd=1.15:0.00 / mixed_ref=1 / me_range=24 / chroma_me=1 / trellis=2 / 8x8dct=1 / cqm=0 / deadzone=21,11 / fast_pskip=1 / chroma_qp_offset=-2 / threads=12 / lookahead_threads=3 / sliced_threads=0 / nr=0 / decimate=1 / interlaced=0 / bluray_compat=0 / constrained_intra=0 / bframes=13 / b_pyramid=2 / b_adapt=2 / b_bias=0 / direct=2 / weightb=1 / open_gop=0 / weightp=2 / keyint=240 / keyint_min=23 / scenecut=40 / intra_refresh=0 / rc_lookahead=60 / rc=crf / mbtree=0 / crf=17.0 / qcomp=0.60 / qpmin=0 / qpmax=69 / qpstep=4 / vbv_maxrate=62500 / vbv_bufsize=78125 / crf_max=0.0 / nal_hrd=none / filler=0 / ip_ratio=1.40 / pb_ratio=1.30 / aq=2:0.70
Language : German
Default : Yes
Forced : No
Audio #1
ID : 2
Format : AC-3
Format/Info : Audio Coding 3
Mode extension : CM (complete main)
Format settings, Endianness : Big
Codec ID : A_AC3
Duration : 1h 28mn
Bit rate mode : Constant
Bit rate : 192 Kbps
Channel(s) : 2 channels
Channel positions : Front: L R
Sampling rate : 48.0 KHz
Bit depth : 16 bits
Compression mode : Lossy
Stream size : 122 MiB (2%)
Title : двухголосый закадровый
Language : Russian
Default : Yes
Forced : No
Audio #2
ID : 3
Format : AC-3
Format/Info : Audio Coding 3
Mode extension : CM (complete main)
Format settings, Endianness : Big
Codec ID : A_AC3
Duration : 1h 28mn
Bit rate mode : Constant
Bit rate : 192 Kbps
Channel(s) : 2 channels
Channel positions : Front: L R
Sampling rate : 48.0 KHz
Bit depth : 16 bits
Compression mode : Lossy
Stream size : 122 MiB (2%)
Title : одноголосый закадровый
Language : Russian
Default : No
Forced : No
Audio #3
ID : 4
Format : FLAC
Format/Info : Free Lossless Audio Codec
Codec ID : A_FLAC
Duration : 1h 28mn
Bit rate mode : Variable
Channel(s) : 1 channel
Sampling rate : 48.0 KHz
Bit depth : 16 bits
Writing library : libFLAC 20080709 (UTC 2008-07-09)
Language : German
Default : No
Forced : No
Audio #4
ID : 5
Format : AC-3
Format/Info : Audio Coding 3
Mode extension : CM (complete main)
Format settings, Endianness : Big
Codec ID : A_AC3
Duration : 1h 28mn
Bit rate mode : Constant
Bit rate : 192 Kbps
Channel(s) : 1 channel
Channel positions : Front: C
Sampling rate : 48.0 KHz
Bit depth : 16 bits
Compression mode : Lossy
Stream size : 122 MiB (2%)
Title : комментарии Вима Вендерса
Language : English
Default : No
Forced : No
Text #1
ID : 6
Format : UTF-8
Codec ID : S_TEXT/UTF8
Codec ID/Info : UTF-8 Plain Text
Language : Russian
Default : No
Forced : No
Text #2
ID : 7
Format : UTF-8
Codec ID : S_TEXT/UTF8
Codec ID/Info : UTF-8 Plain Text
Language : English
Default : No
Forced : No
Menu
00:00:00.000 : en:00:00:00.000
00:06:49.284 : en:00:06:49.284
00:10:57.323 : en:00:10:57.323
00:17:05.483 : en:00:17:05.483
00:26:53.612 : en:00:26:53.612
00:34:07.212 : en:00:34:07.212
00:37:40.633 : en:00:37:40.633
00:44:15.736 : en:00:44:15.736
00:54:42.863 : en:00:54:42.863
00:59:47.459 : en:00:59:47.459
01:04:22.275 : en:01:04:22.275
01:14:53.989 : en:01:14:53.989
01:19:32.935 : en:01:19:32.935

Скриншоты




Показать сообщения:    

Текущее время: 19-Янв 22:15

Часовой пояс: UTC + 3


Вы не можете начинать темы
Вы не можете отвечать на сообщения
Вы не можете редактировать свои сообщения
Вы не можете удалять свои сообщения
Вы не можете голосовать в опросах
Вы не можете прикреплять файлы к сообщениям
Вы не можете скачивать файлы