Белоснежка / Blancanieves (Пабло Берхер / Pablo Berger) [2012, Испания, драма, BDRip 720p] [Немое кино] интертитры (spa) + Sub (rus, eng)


 

[Цитировать]

Белоснежка / Blancanieves
IMDb
Страна: Испания
Жанр: драма
Год выпуска: 2012
Продолжительность: 01:44:30
Интертитры: испанские
Перевод: Субтитры
Cубтитры: русские (7ime 7raveller), английские
Оригинальная аудиодорожка: музыкальное сопровождение Альфонсо де Вилальонга
Режиссер: Пабло Берхер / Pablo Berger
В ролях: Марибель Верду (Maribel Verdú), Макарена Гарсия (Macarena García), София Ория (Sofía Oria), Даниэль Хименес Качо (Daniel Giménez Cacho), Анхела Молина (Ángela Molina), Пере Понсе (Pere Ponce), Хосе Мария Поу (Josep Maria Pou), Инма Куэста (Inma Cuesta), Рамон Бареа (Ramón Barea), Эмилио Гавира (Emilio Gavira) и др.
Описание: Действие фильма разворачивается в Испании в первой трети XX века. Знаменитый тореро (Даниэль Хименес Качо) теряет жену (Инма Куэста), а сам, парализованный после боя с быком по кличке Люцифер, попадает в руки роковой медсестры Энкарны (Марибель Верду), которая вскоре женит его на себе. Она же терзает дочку тореро Кармен (Макарена Гарсия) так жестоко, что однажды та теряет память и оказывается в компании цирковых карликов, прозвавших её Белоснежкой. Память начинает возвращаться к ней лишь тогда, когда она в костюме матадора оказывается на арене перед сотнями зрителей и быком по кличке Сатана.
Сэмпл: https://yadi.sk/i/WRNEYNoSiqxyC
Тип релиза: BDRip 720p by Skazhutin
Контейнер: MKV
Видео: 960x720 at 24.000 fps (True24p), x264@L4.1, 2pass, ~8000 kbps avg
Аудио 1: 48 kHz, DTS, 3/2 (L,C,R,l,r) + LFE ch, ~1536.00 kbps avg |Original musical score by Alfonso de Vilallonga|
Аудио 2: 48 kHz, AC3, 2/0 (L,R) ch, ~192.00 kbps avg |Audiocomentario de Pablo Berger| - Español
Формат субтитров: softsub (SRT)
Навигация по главам: есть

MediaInfo

General
Unique ID : 208448918271930266110274687715534309650 (0x9CD1CD25C3EF47D1B806E00ED5CE0912)
Complete name : Q:\HD4\Blancanieves.2012.720p.BluRay.DTS.x264-Skazhutin.mkv
Format : Matroska
Format version : Version 4 / Version 2
File size : 7.27 GiB
Duration : 1h 44mn
Overall bit rate : 9 958 Kbps
Movie name : Blancanieves (2012) - Release for HDCLUB by Skazhutin & 7ime 7raveller
Encoded date : UTC 2015-09-03 10:11:02
Writing application : mkvmerge v8.3.0 ('Over the Horizon') 32bit
Writing library : libebml v1.3.1 + libmatroska v1.4.2
Attachements : xlog.txt
Video
ID : 1
Format : AVC
Format/Info : Advanced Video Codec
Format profile : High@L4.1
Format settings, CABAC : Yes
Format settings, ReFrames : 12 frames
Codec ID : V_MPEG4/ISO/AVC
Duration : 1h 44mn
Bit rate : 8 000 Kbps
Width : 960 pixels
Height : 720 pixels
Display aspect ratio : 4:3
Frame rate mode : Constant
Frame rate : 24.000 fps
Color space : YUV
Chroma subsampling : 4:2:0
Bit depth : 8 bits
Scan type : Progressive
Bits/(Pixel*Frame) : 0.482
Stream size : 5.88 GiB (81%)
Title : Release for HDCLUB
Writing library : x264 core 130 r2273kMod b3065e6
Encoding settings : cabac=1 / ref=12 / deblock=1:-3:-3 / analyse=0x3:0x113 / me=umh / subme=11 / psy=1 / fade_compensate=0.00 / psy_rd=1.00:0.00 / mixed_ref=1 / me_range=48 / chroma_me=1 / trellis=2 / 8x8dct=1 / cqm=0 / deadzone=21,11 / fast_pskip=0 / chroma_qp_offset=-2 / threads=12 / lookahead_threads=3 / sliced_threads=0 / nr=0 / decimate=0 / interlaced=0 / bluray_compat=0 / constrained_intra=0 / bframes=14 / b_pyramid=2 / b_adapt=2 / b_bias=0 / direct=3 / weightb=1 / open_gop=0 / weightp=2 / keyint=250 / keyint_min=24 / scenecut=40 / intra_refresh=0 / rc_lookahead=40 / rc=2pass / mbtree=0 / bitrate=8000 / ratetol=1.0 / qcomp=0.80 / qpmin=0 / qpmax=69 / qpstep=4 / cplxblur=20.0 / qblur=0.5 / vbv_maxrate=50000 / vbv_bufsize=62500 / nal_hrd=none / ip_ratio=1.40 / pb_ratio=1.30 / aq=1:0.70
Language : Spanish
Default : Yes
Forced : No
Color range : Limited
Matrix coefficients : BT.709
Audio #1
ID : 2
Format : DTS
Format/Info : Digital Theater Systems
Mode : 16
Format settings, Endianness : Big
Codec ID : A_DTS
Duration : 1h 44mn
Bit rate mode : Constant
Bit rate : 1 509 Kbps
Channel(s) : 6 channels
Channel positions : Front: L C R, Side: L R, LFE
Sampling rate : 48.0 KHz
Bit depth : 24 bits
Compression mode : Lossy
Stream size : 1.10 GiB (15%)
Title : Original musical score by Alfonso de Vilallonga
Language : Spanish
Default : Yes
Forced : No
Audio #2
ID : 3
Format : AC-3
Format/Info : Audio Coding 3
Mode extension : CM (complete main)
Format settings, Endianness : Big
Codec ID : A_AC3
Duration : 1h 44mn
Bit rate mode : Constant
Bit rate : 192 Kbps
Channel(s) : 2 channels
Channel positions : Front: L R
Sampling rate : 48.0 KHz
Compression mode : Lossy
Stream size : 144 MiB (2%)
Title : Audiocomentario de Pablo Berger
Language : Spanish
Default : No
Forced : No
Text #1
ID : 4
Format : UTF-8
Codec ID : S_TEXT/UTF8
Codec ID/Info : UTF-8 Plain Text
Title : 77
Language : Russian
Default : Yes
Forced : No
Text #2
ID : 5
Format : UTF-8
Codec ID : S_TEXT/UTF8
Codec ID/Info : UTF-8 Plain Text
Language : English
Default : No
Forced : No
Menu
00:00:00.000 : en:Chapter 1
00:09:57.457 : en:Chapter 2
00:25:13.374 : en:Chapter 3
00:37:18.666 : en:Chapter 4
00:49:04.874 : en:Chapter 5
01:02:58.207 : en:Chapter 6
01:14:36.666 : en:Chapter 7
01:28:05.624 : en:Chapter 8

Скриншоты: рип vs исходник






Показать сообщения:    

Текущее время: 07-Дек 13:32

Часовой пояс: UTC + 3


Вы не можете начинать темы
Вы не можете отвечать на сообщения
Вы не можете редактировать свои сообщения
Вы не можете удалять свои сообщения
Вы не можете голосовать в опросах
Вы не можете прикреплять файлы к сообщениям
Вы не можете скачивать файлы