Очищение / Clean (Оливье Ассайас / Olivier Assayas) [2004, Франция, Канада, Великобритания, драма, музыка, WEB-DL 720p] DVO + Sub Eng + Original Eng


 

[Цитировать]

Очищение / Clean
Страна: Франция, Канада, Великобритания
Студия: Rectangle Productions, Haystack Productions, Rhombus Media
Жанр: драма, музыка
Год выпуска: 2004
Продолжительность: 01:50:40
Перевод: Профессиональный (двухголосый закадровый)
Cубтитры: английские
Оригинальная аудиодорожка: английский
Режиссер: Оливье Ассайас / Olivier Assayas
В ролях: Мэгги Чун, Ник Нолти, Беатрис Даль, Жанна Балибар, Дон МакКеллар, Марта Генри, Джеймс Джонстон, Джеймс Дэннис, Реми Мартен, Летиция Спигарелли
Описание: Бывшая рок-звезда Ли Хаузер скончался от передозировки. После смерти мужа певица Эмили решает порвать с прошлой жизнью, завязать с наркотиками и вернуть себе сына, который уже давно живет у родителей Ли и не любит свою далекую, незнакомую мать. Эмили предстоит непростой выбор — забыть о музыке, чтобы найти путь к сердцу сына, или махнуть на все рукой и уехать в Нью-Йорк, где ждет продюсер, готовый возродить ее угасшую карьеру…
II Сэмпл II IMDB II
Бонусы:
За русскую дорогу спасибо max1wq и shakedown
Тип релиза: WEB-DL 720p
Контейнер: MKV
Видео: AVC / 1280x544 / 2.35:1 / 23.976fps / Bit rate 3839Kbps
Аудио 1: AC3 / 48.0 KHz / 2ch. / 192kbps / rus / dvo
Аудио 2: AC3 / 48.0 KHz / 6ch. / 384kbps / eng
Формат субтитров: softsub (SRT)

MediaInfo

Общее
Уникальный идентификатор : 191650033262976593673788226165360974510 (0x902E742B9B851BA4A81C34FAAB865AAE)
Полное имя : H:\!_Torrent\Clean.2004.WEB-DL.720p_by_vedigo.mkv
Формат : Matroska
Версия формата : Version 4 / Version 2
Размер файла : 3,48 Гбайт
Продолжительность : 1 ч. 50 м.
Общий поток : 4504 Кбит/сек
Название фильма : Clean.2004.WEB-DL.720p_by_vedigo
Дата кодирования : UTC 2015-08-28 02:04:56
Программа кодирования : mkvmerge v8.3.0 ('Over the Horizon') 64bit
Библиотека кодирования : libebml v1.3.1 + libmatroska v1.4.2
DURATION : 01:48:36.660000000
NUMBER_OF_FRAMES : 1013
NUMBER_OF_BYTES : 28808
_STATISTICS_WRITING_APP : mkvmerge v8.3.0 ('Over the Horizon') 64bit
_STATISTICS_WRITING_DATE_UTC : 2015-08-28 02:04:56
_STATISTICS_TAGS : BPS DURATION NUMBER_OF_FRAMES NUMBER_OF_BYTES
Видео
Идентификатор : 1
Формат : AVC
Формат/Информация : Advanced Video Codec
Профиль формата : Main@L3.1
Параметр CABAC формата : Нет
Параметр ReFrames формата : 2 кадра
Идентификатор кодека : V_MPEG4/ISO/AVC
Продолжительность : 1 ч. 50 м.
Битрейт : 3839 Кбит/сек
Ширина : 1280 пикселей
Высота : 544 пикселя
Соотношение сторон : 2,35:1
Режим частоты кадров : Постоянный
Частота кадров : 23,976 кадра/сек
Цветовое пространство : YUV
Субдискретизация насыщенности : 4:2:0
Битовая глубина : 8 бит
Тип развёртки : Прогрессивная
Бит/(Пиксели*Кадры) : 0.230
Размер потока : 2,97 Гбайт (85%)
Заголовок : Clean.2004.WEB-DL.720p_by_vedigo
Default : Да
Forced : Нет
Цветовой диапазон : Limited
Основные цвета : BT.709
Характеристики трансфера : BT.709
Коэффициенты матрицы : BT.709
Аудио #1
Идентификатор : 2
Формат : AC-3
Формат/Информация : Audio Coding 3
Расширение режима : CM (complete main)
Параметр Endianness формата : Big
Идентификатор кодека : A_AC3
Продолжительность : 1 ч. 50 м.
Вид битрейта : Постоянный
Битрейт : 192 Кбит/сек
Каналы : 2 канала
Расположение каналов : Front: L R
Частота : 48,0 КГц
Метод сжатия : С потерями
Размер потока : 152 Мбайт (4%)
Заголовок : DVO
Язык : Russian
Default : Да
Forced : Нет
Аудио #2
Идентификатор : 3
Формат : AC-3
Формат/Информация : Audio Coding 3
Расширение режима : CM (complete main)
Параметр Endianness формата : Big
Идентификатор кодека : A_AC3
Продолжительность : 1 ч. 50 м.
Вид битрейта : Постоянный
Битрейт : 384 Кбит/сек
Каналы : 6 каналов
Расположение каналов : Front: L C R, Side: L R, LFE
Частота : 48,0 КГц
Метод сжатия : С потерями
Размер потока : 304 Мбайт (9%)
Заголовок : original
Язык : English
Default : Нет
Forced : Нет
Текст
Идентификатор : 4
Формат : UTF-8
Идентификатор кодека : S_TEXT/UTF8
Идентификатор кодека/Информация : UTF-8 Plain Text
Заголовок : subtitle eng
Язык : English
Default : Нет
Forced : Нет
Меню
00:00:00.000 : en:1
00:06:55.000 : en:2
00:12:48.000 : en:3
00:18:00.000 : en:4
00:21:01.000 : en:5
00:30:01.000 : en:Chapter 6
00:35:24.000 : en:7
00:42:02.000 : en:8
00:45:37.000 : en:9
00:58:15.000 : en:10
01:06:14.000 : en:11
01:09:07.000 : en:12
01:12:17.000 : en:13
01:18:42.000 : en:14
01:23:29.000 : en:15
01:34:10.000 : en:16
01:41:49.000 : en:17
01:47:13.000 : en:18

Скриншоты





Показать сообщения:    

Текущее время: 03-Дек 09:49

Часовой пояс: UTC + 3


Вы не можете начинать темы
Вы не можете отвечать на сообщения
Вы не можете редактировать свои сообщения
Вы не можете удалять свои сообщения
Вы не можете голосовать в опросах
Вы не можете прикреплять файлы к сообщениям
Вы не можете скачивать файлы