Начальная школа / Obecná skola / The Elementary School (Ян Сверак / Jan Sverák) [1991, Чехословакия, драма, история, HDTVRip 720p] AVO (С. Кузнецов) + Sub Rus, Eng, Cze + Original Cze


 

[Цитировать]

Начальная школа / Obecná skola / The Elementary School
Страна: Чехословакия
Студия: Filmové Studio Barrandov
Жанр: драма, история
Год выпуска: 1991
Продолжительность: 01:36:28
Перевод: Авторский (одноголосый закадровый) Сергей Кузнецов
Cубтитры: русские, английские, чешские
Оригинальная аудиодорожка: чешский
Режиссер: Ян Сверак / Jan Sverák
В ролях: Ян Триска, Зденек Сверак, Либуше Шафранкова, Рудольф Грушинский, Ирена Павласкова, Ондржей Ветхи, Даниэла Коларова, Ева Голубова, Рудольф Грушинский
Описание: Действие фильма разворачивается в первый послевоенный год в атмосфере снова обретенной свободы и новых надежд на будущее. Действие раскрывает отношения маленького Эди к двум авторитетам в его жизни — отцу и учителю Гниздо. Игорь Гниздо — учитель, «партизан и участник сопротивления», который укрощает класс разбушевавшихся озорников, которые довели свою предыдущую учительницу до сумасшедшего дома.
Строгими методами, частью которых являются очень гибкая розга и увлекательные рассказы о военных впечатлениях, он смог успокоить класс, а своим примером заслужить его любовь и восхищение. Восхищение Гниздо вызывает и у женщин, которых очаровывает своим шармом, что ставит под угрозу его учительскую карьеру.

Доп. информация: За перевод Кузнецова спасибо lunatec, за русские субтитры спасибо toblues.

Sample
Тип релиза: HDTVRip 720p - Don
Контейнер: MKV
Видео: MPEG4 AVC Video, H264, 16:9, 1194x720, 25 fps, 11000 Kbps
Аудио: Russian (AC3, 2 ch, 192 kbps, 16 bits, 48.0 KHz) - AVO
Аудио 2: Czech (AC3, 2 ch, 448 kbps, 16 bits, 48.0 KHz) - оригинал
Формат субтитров: softsub (SRT)

MediaInfo

General
Unique ID : 194102650018053897661643194228524248665 (0x9206CF832F43C576B5850C4BA198EE59)
Complete name : K:\Obecna skola 1991 HDTVRip 720p.mkv
Format : Matroska
Format version : Version 4 / Version 2
File size : 7.84 GiB
Duration : 1h 36mn
Overall bit rate : 11.6 Mbps
Encoded date : UTC 2015-08-24 11:23:59
Writing application : mkvmerge v6.1.0 ('Old Devil') built on Mar 2 2013 14:32:37
Writing library : libebml v1.3.0 + libmatroska v1.4.0
Video
ID : 1
Format : AVC
Format/Info : Advanced Video Codec
Format profile : High@L4.1
Format settings, CABAC : Yes
Format settings, ReFrames : 9 frames
Codec ID : V_MPEG4/ISO/AVC
Duration : 1h 36mn
Bit rate : 11.0 Mbps
Width : 1 194 pixels
Height : 720 pixels
Display aspect ratio : 1.658
Frame rate mode : Constant
Frame rate : 25.000 fps
Color space : YUV
Chroma subsampling : 4:2:0
Bit depth : 8 bits
Scan type : Progressive
Bits/(Pixel*Frame) : 0.512
Stream size : 7.25 GiB (93%)
Writing library : x264 core 142 r2431+42 c69a006 tMod [8-bit@all X86_64]
Encoding settings : cabac=1 / ref=9 / deblock=1:-3:-3 / analyse=0x3:0x133 / me=tesa / subme=10 / psy=1 / fade_compensate=0.00 / psy_rd=1.10:0.00 / mixed_ref=1 / me_range=24 / chroma_me=1 / trellis=2 / 8x8dct=1 / cqm=0 / deadzone=21,11 / fast_pskip=0 / chroma_qp_offset=-2 / threads=12 / lookahead_threads=2 / sliced_threads=0 / nr=0 / decimate=0 / interlaced=0 / bluray_compat=0 / constrained_intra=0 / fgo=0 / bframes=8 / b_pyramid=2 / b_adapt=2 / b_bias=0 / direct=3 / weightb=1 / open_gop=0 / weightp=2 / keyint=250 / keyint_min=25 / scenecut=40 / intra_refresh=0 / rc_lookahead=60 / rc=2pass / mbtree=0 / bitrate=11000 / ratetol=1.0 / qcomp=0.65 / qpmin=0:0:0 / qpmax=69:69:69 / qpstep=4 / cplxblur=20.0 / qblur=0.5 / vbv_maxrate=62500 / vbv_bufsize=78125 / nal_hrd=none / filler=0 / ip_ratio=1.10 / pb_ratio=1.10 / aq=4:0.60 / aq-sensitivity=10.00 / aq-factor=1.00:1.00:1.00 / aq2=0 / aq3=0
Language : Czech
Default : No
Forced : No
Audio #1
ID : 2
Format : AC-3
Format/Info : Audio Coding 3
Mode extension : CM (complete main)
Format settings, Endianness : Big
Codec ID : A_AC3
Duration : 1h 36mn
Bit rate mode : Constant
Bit rate : 192 Kbps
Channel count : 2 channels
Channel positions : Front: L R
Sampling rate : 48.0 KHz
Bit depth : 16 bits
Compression mode : Lossy
Stream size : 132 MiB (2%)
Language : Russian
Default : Yes
Forced : No
Audio #2
ID : 3
Format : AC-3
Format/Info : Audio Coding 3
Mode extension : CM (complete main)
Format settings, Endianness : Big
Codec ID : A_AC3
Duration : 1h 36mn
Bit rate mode : Constant
Bit rate : 448 Kbps
Channel count : 2 channels
Channel positions : Front: L R
Sampling rate : 48.0 KHz
Bit depth : 16 bits
Compression mode : Lossy
Stream size : 309 MiB (4%)
Language : Czech
Default : No
Forced : No
Text #1
ID : 4
Format : UTF-8
Codec ID : S_TEXT/UTF8
Codec ID/Info : UTF-8 Plain Text
Language : Russian
Default : No
Forced : No
Text #2
ID : 5
Format : UTF-8
Codec ID : S_TEXT/UTF8
Codec ID/Info : UTF-8 Plain Text
Language : English
Default : No
Forced : No
Text #3
ID : 6
Format : UTF-8
Codec ID : S_TEXT/UTF8
Codec ID/Info : UTF-8 Plain Text
Language : Czech
Default : No
Forced : No

Скриншоты




Показать сообщения:    

Текущее время: 07-Дек 17:27

Часовой пояс: UTC + 3


Вы не можете начинать темы
Вы не можете отвечать на сообщения
Вы не можете редактировать свои сообщения
Вы не можете удалять свои сообщения
Вы не можете голосовать в опросах
Вы не можете прикреплять файлы к сообщениям
Вы не можете скачивать файлы