Охотничий сезон / Av mevsimi / Hunting Season (Явуз Тургул / Yavuz Turgul) [2010, Турция, триллер, драма, криминал, детектив, BDRip 720p] VO (Морозов) + Original Tur + Sub (Rus, Tur)


 

[Цитировать]

Охотничий сезон / Av mevsimi / Hunting Season
_______________________________________________________________________________________
Страна: Турция
Студия: Fida Film, Pro Film
Жанр: Триллер, драма, криминал, детектив
Год выпуска: 2010
Продолжительность: 02:24:48
Перевод: Одноголосый закадровый (Павел Морозов aka PashaUp, по субтитрам creo140)
Оригинальная аудиодорожка: турецкий
Cубтитры: русские (creo 140), английские
Режиссер: Явуз Тургул / Yavuz Turgul
В ролях: Шенер Шен, Джем Йылмаз, Четин Текиндор, Мелиса Сёзен, Окан Ялабык, Рыза Коджаоглу, Нергис Чоракчи, Мустафа Авкиран, Махир Ипек, Сефика Толун
Описание: Жизнь полицейских полностью переменилась, когда они стали заниматься расследованием одной очень странной и запутанной ситуации. В их отдел поступило заявление об убийстве девушки. И так, это трио начинает составлять список подозреваемых, куда вошла даже её интеллигентная семья. Возможно, родители наказали дочь за попранную честь семьи, ее связь с наркодиллером. Или их так огорчило её сожительство с престарелым миллиардером? Пока детективы будут искать истинную причину, их жизнь изменится.
_______________________________________________________________________________________

Релиз-группа:
От себя добавил русские субтитры и коврик
Тип релиза: BDRip 720p
Контейнер: MKV
Видео: 1280x720, 25.000 fps, x264@L4.1, ~5879 kbps avg
Аудио 1: Russian: 48 kHz, AC3, 3/2 (L,C,R,l,r) + LFE ch, ~448 kbps avg |Одноголосый закадровый, Павел Морозов aka PashaUp|
Аудио 2: Turkish: 48 kHz, DTS, 3/2 (L,C,R,l,r) + LFE ch, ~768 kbps avg |Original|
Cубтитры: русские, английские

MediaInfo

General
Unique ID : 182339001154568637314788460884632803512 (0x892D36D8204F4E4CA3EE101E909C18B8)
Complete name : D:\Av.Mevsimi.2010.x264.BDRip.720p.Rus.Tur.-NovaLan.mkv
Format : Matroska
Format version : Version 4 / Version 2
File size : 7.18 GiB
Duration : 2h 24mn
Overall bit rate : 7 097 Kbps
Movie name : Охотничий сезон / Hunting Season / Av mevsimi (2010) - NovaLan
Encoded date : UTC 2015-08-23 09:36:52
Writing application : mkvmerge v8.3.0 ('Over the Horizon') 64bit
Writing library : libebml v1.3.1 + libmatroska v1.4.2
Attachements : cover.jpg
DURATION : 02:20:25.593000000
NUMBER_OF_FRAMES : 1533
NUMBER_OF_BYTES : 113044
_STATISTICS_WRITING_APP : mkvmerge v8.3.0 ('Over the Horizon') 64bit
_STATISTICS_WRITING_DATE_UT : 2015-08-23 09:36:52
_STATISTICS_TAGS : BPS DURATION NUMBER_OF_FRAMES NUMBER_OF_BYTES
Video
ID : 1
Format : AVC
Format/Info : Advanced Video Codec
Format profile : High@L4.1
Format settings, CABAC : Yes
Format settings, ReFrames : 8 frames
Codec ID : V_MPEG4/ISO/AVC
Duration : 2h 24mn
Bit rate : 5 879 Kbps
Width : 1 280 pixels
Height : 720 pixels
Display aspect ratio : 16:9
Frame rate mode : Constant
Frame rate : 25.000 fps
Color space : YUV
Chroma subsampling : 4:2:0
Bit depth : 8 bits
Scan type : Progressive
Bits/(Pixel*Frame) : 0.255
Stream size : 5.81 GiB (81%)
Title : Sergei7721
Writing library : x264 core 146 r2538 121396c
Encoding settings : cabac=1 / ref=8 / deblock=1:-1:-1 / analyse=0x3:0x113 / me=umh / subme=11 / psy=1 / psy_rd=1.00:0.20 / mixed_ref=1 / me_range=32 / chroma_me=1 / trellis=2 / 8x8dct=1 / cqm=0 / deadzone=21,11 / fast_pskip=0 / chroma_qp_offset=-3 / threads=12 / lookahead_threads=1 / sliced_threads=0 / nr=0 / decimate=0 / interlaced=0 / bluray_compat=0 / constrained_intra=0 / bframes=6 / b_pyramid=2 / b_adapt=2 / b_bias=0 / direct=3 / weightb=1 / open_gop=0 / weightp=2 / keyint=250 / keyint_min=25 / scenecut=40 / intra_refresh=0 / rc_lookahead=40 / rc=2pass / mbtree=0 / bitrate=5879 / ratetol=1.0 / qcomp=0.60 / qpmin=0 / qpmax=69 / qpstep=4 / cplxblur=20.0 / qblur=0.5 / vbv_maxrate=50000 / vbv_bufsize=62500 / nal_hrd=none / filler=0 / ip_ratio=1.40 / pb_ratio=1.30 / aq=1:1.00
Language : Turkish
Default : Yes
Forced : No
DURATION : 02:24:48.000000000
NUMBER_OF_FRAMES : 217200
NUMBER_OF_BYTES : 6383310928
_STATISTICS_WRITING_APP : mkvmerge v8.3.0 ('Over the Horizon') 64bit
_STATISTICS_WRITING_DATE_UT : 2015-08-23 09:36:52
_STATISTICS_TAGS : BPS DURATION NUMBER_OF_FRAMES NUMBER_OF_BYTES
Audio #1
ID : 2
Format : AC-3
Format/Info : Audio Coding 3
Mode extension : CM (complete main)
Format settings, Endianness : Big
Codec ID : A_AC3
Duration : 2h 24mn
Bit rate mode : Constant
Bit rate : 448 Kbps
Channel(s) : 6 channels
Channel positions : Front: L C R, Side: L R, LFE
Sampling rate : 48.0 KHz
Bit depth : 16 bits
Compression mode : Lossy
Stream size : 464 MiB (6%)
Language : Russian
Default : Yes
Forced : No
Audio #2
ID : 3
Format : DTS
Format/Info : Digital Theater Systems
Mode : 16
Format settings, Endianness : Big
Codec ID : A_DTS
Duration : 2h 24mn
Bit rate mode : Constant
Bit rate : 768 Kbps
Channel(s) : 6 channels
Channel positions : Front: L C R, Side: L R, LFE
Sampling rate : 48.0 KHz
Bit depth : 24 bits
Compression mode : Lossy
Stream size : 795 MiB (11%)
Language : Turkish
Default : No
Forced : No
Text #1
ID : 4
Format : UTF-8
Codec ID : S_TEXT/UTF8
Codec ID/Info : UTF-8 Plain Text
Language : Russian
Default : No
Forced : No
Text #2
ID : 5
Format : UTF-8
Codec ID : S_TEXT/UTF8
Codec ID/Info : UTF-8 Plain Text
Language : English
Default : No
Forced : No
Menu
00:00:00.000 : en:00:00:00.000
00:00:34.080 : en:00:00:34.080
00:02:36.000 : en:00:02:36.000
00:07:09.080 : en:00:07:09.080
00:12:04.880 : en:00:12:04.880
00:18:35.320 : en:00:18:35.320
00:24:23.120 : en:00:24:23.120
00:25:58.200 : en:00:25:58.200
00:33:08.360 : en:00:33:08.360
00:36:24.000 : en:00:36:24.000
00:40:33.320 : en:00:40:33.320
00:41:36.840 : en:00:41:36.840
00:47:36.400 : en:00:47:36.400
00:53:39.120 : en:00:53:39.120
00:55:34.480 : en:00:55:34.480
01:04:47.640 : en:01:04:47.640
01:08:35.160 : en:01:08:35.160
01:17:16.880 : en:01:17:16.880
01:22:46.240 : en:01:22:46.240
01:24:56.960 : en:01:24:56.960
01:28:21.400 : en:01:28:21.400
01:31:06.560 : en:01:31:06.560
01:33:08.520 : en:01:33:08.520
01:35:08.000 : en:01:35:08.000
01:44:00.800 : en:01:44:00.800
01:53:02.600 : en:01:53:02.600
01:54:16.600 : en:01:54:16.600
02:03:35.440 : en:02:03:35.440
02:11:28.000 : en:02:11:28.000
02:20:37.200 : en:02:20:37.200

Скриншоты





Показать сообщения:    

Текущее время: 05-Дек 01:25

Часовой пояс: UTC + 3


Вы не можете начинать темы
Вы не можете отвечать на сообщения
Вы не можете редактировать свои сообщения
Вы не можете удалять свои сообщения
Вы не можете голосовать в опросах
Вы не можете прикреплять файлы к сообщениям
Вы не можете скачивать файлы