Джесс + Мосс / Jess + Moss (Клэй Джетер / Clay Jeter) [2011, США, драма, WEB-DL 720p] AVO (Ю. Сербин) + Sub Rus, Eng + Original Eng


 

[Цитировать]

Джесс + Мосс / Jess + Moss
Страна: США
Студия: Blood River Pictures, Liquid Crystal Productions, Love Streams Productions
Жанр: драма
Год выпуска: 2011
Продолжительность: 01:21:58
Перевод: Авторский (одноголосый закадровый) Ю. Сербин
Cубтитры: русские, английские
Оригинальная аудиодорожка: английский
Режиссер: Клэй Джетер / Clay Jeter
В ролях: Сара Хэйгэн, Остин Викерз, Дональд Флеминг, Мари Колемен, Хейли Паркер, Хейли Энн Строуд
Описание: Лишившиеся родителей восемнадцатилетняя Джесс и двенадцатилетний Мосс каждое лето предоставлены самим себе. Точнее — друг другу. Выброшенные на берег необитаемого острова детства, эти повелители навозных мух целыми днями слоняются по руинам, хранящим память об их родителях, пуляют в небо фейерверки и записывают на кассету послания самим себе...
Доп. информация: За дорожку Сербина спасибо semiramida1970, за русские субтитры спасибо alex-kam.

Sample
Тип релиза: WEB-DL 720p
Контейнер: MKV
Видео: MPEG4 AVC Video, H264, 16:9, 1266x720, 23.976 fps, 3651 kbps
Аудио: Russian (AC3, 2 ch, 192 kbps, 16 bits, 48.0 KHz) - AVO
Аудио 2: English (AC3, 6 ch, 384 kbps, 16 bits, 48.0 KHz) - оригинал
Формат субтитров: softsub (SRT)

MediaInfo

General
Unique ID : 212834397702971205685562184107313399046 (0xA01E69FA256A6DA097988210D67D0506)
Complete name : K:\Jess + Moss 2011 WEB-DL 720p.mkv
Format : Matroska
Format version : Version 4 / Version 2
File size : 2.47 GiB
Duration : 1h 21mn
Overall bit rate : 4 313 Kbps
Encoded date : UTC 2015-08-19 09:24:18
Writing application : mkvmerge v6.1.0 ('Old Devil') built on Mar 2 2013 14:32:37
Writing library : libebml v1.3.0 + libmatroska v1.4.0
Video
ID : 1
Format : AVC
Format/Info : Advanced Video Codec
Format profile : High@L3.1
Format settings, CABAC : No
Format settings, ReFrames : 2 frames
Codec ID : V_MPEG4/ISO/AVC
Duration : 1h 21mn
Bit rate : 3 651 Kbps
Width : 1 266 pixels
Height : 720 pixels
Display aspect ratio : 16:9
Frame rate mode : Constant
Frame rate : 23.976 fps
Color space : YUV
Chroma subsampling : 4:2:0
Bit depth : 8 bits
Scan type : Progressive
Bits/(Pixel*Frame) : 0.167
Stream size : 2.09 GiB (85%)
Language : English
Default : Yes
Forced : No
Color primaries : BT.709
Transfer characteristics : BT.709
Matrix coefficients : BT.709
Audio #1
ID : 2
Format : AC-3
Format/Info : Audio Coding 3
Mode extension : CM (complete main)
Format settings, Endianness : Big
Codec ID : A_AC3
Duration : 1h 21mn
Bit rate mode : Constant
Bit rate : 192 Kbps
Channel count : 2 channels
Channel positions : Front: L R
Sampling rate : 48.0 KHz
Bit depth : 16 bits
Compression mode : Lossy
Stream size : 113 MiB (4%)
Language : Russian
Default : Yes
Forced : Yes
Audio #2
ID : 3
Format : AC-3
Format/Info : Audio Coding 3
Mode extension : CM (complete main)
Format settings, Endianness : Big
Codec ID : A_AC3
Duration : 1h 21mn
Bit rate mode : Constant
Bit rate : 384 Kbps
Channel count : 6 channels
Channel positions : Front: L C R, Side: L R, LFE
Sampling rate : 48.0 KHz
Bit depth : 16 bits
Compression mode : Lossy
Stream size : 225 MiB (9%)
Language : English
Default : No
Forced : No
Text #1
ID : 4
Format : UTF-8
Codec ID : S_TEXT/UTF8
Codec ID/Info : UTF-8 Plain Text
Language : Russian
Default : No
Forced : No
Text #2
ID : 5
Format : UTF-8
Codec ID : S_TEXT/UTF8
Codec ID/Info : UTF-8 Plain Text
Language : English
Default : No
Forced : No
Menu
00:00:00.000 : en:Race You Upstairs!
00:06:30.000 : en:You Should Buy A Boat
00:14:39.000 : en:The Biggest Soda In the World
00:21:23.000 : en:Wipe My Butt
00:28:56.000 : en:You Look Just Like Her
00:35:23.000 : en:Dance Closer
00:41:19.000 : en:Sea Monsters
00:48:26.000 : en:Jess?
00:56:34.000 : en:7 Minutes In Heaven
01:02:55.000 : en:They Loved You So Much
01:10:42.000 : en:See the Big Dipper?
01:17:19.000 : en:End Of Summer Bash

Скриншоты




Показать сообщения:    

Текущее время: 09-Дек 01:08

Часовой пояс: UTC + 3


Вы не можете начинать темы
Вы не можете отвечать на сообщения
Вы не можете редактировать свои сообщения
Вы не можете удалять свои сообщения
Вы не можете голосовать в опросах
Вы не можете прикреплять файлы к сообщениям
Вы не можете скачивать файлы