Шрам / The Cut (Фатих Акин / Fatih Akin) [2014, Германия, Франция, Польша, Турция, Канада, Россия, Италия, драма, история, BDRip 720p] Dub + Sub Rus, Ger + Original Eng


 

[Цитировать]

Шрам / The Cut
Страна: Германия, Франция, Польша, Турция, Канада, Россия, Италия
Студия: Bombero International, Pyramide Productions, Corazon Internationa
Жанр: драма, история
Год выпуска: 2014
Продолжительность: 02:18:21
Перевод: Профессиональный (дублированный)
Cубтитры: Rus, Ger
Оригинальная аудиодорожка: английский
Режиссер: Фатих Акин / Fatih Akin
В ролях: Тахар Рахим, Джордж Джорджиу, Макрам Кхури, Нуман Ачар, Анна Савва, Симон Абкарян, Арсения Ханджян, Акин Гази, Лара Хеллер, Алехандро Рэй, Дастин МакДугалл, Сеседе Терзиян, Аревик Мартиросян
Описание: Во время геноцида армян в 1915 году Назарет Манукян теряет семью. Спустя годы он случайно узнает, что его дочки-близнецы, возможно, спаслись. Назарет отправляется на их поиски и доходит из родной деревни Мардин в пустыню Месопотамии, а потом в Новый Свет — в Гавану и Северную Дакоту.
Доп. информация: Турецкая речь - Профессиональный многоголосный перевод

Тип релиза: BDRip 720p
Контейнер: MKV
Видео: MPEG-4 AVC, 7000 Кбит/с, 1280x536, 24.000 fps
Аудио: Rus, AC3, 384 kb/s (6 ch), 48 kHz
Аудио 2: Eng, DTS, 1510 kb/s (2 ch), 48 kHz
Формат субтитров: softsub (SRT)

MediaInfo

Format : Matroska
Format version : Version 4 / Version 2
File size : 8.59 GiB
Duration : 2h 18mn
Overall bit rate : 8 894 Kbps
Movie name : Шрам. (Tonik)
Encoded date : UTC 2015-08-18 12:30:24
Writing application : mkvmerge v7.1.0 ('Good Love') 64bit built on Jul 27 2014 13:06:55
Writing library : libebml v1.3.0 + libmatroska v1.4.1
_STATISTICS_WRITING_APP : mkvmerge v7.1.0 ('Good Love') 64bit built on Jul 27 2014 13:06:55
_STATISTICS_WRITING_DATE_UTC : 2015-08-18 12:30:24
_STATISTICS_TAGS : BPS DURATION NUMBER_OF_FRAMES NUMBER_OF_BYTES
DURATION : 02:06:14.915000000
NUMBER_OF_FRAMES : 670
NUMBER_OF_BYTES : 19980
Video
ID : 1
Format : AVC
Format/Info : Advanced Video Codec
Format profile : High@L4.1
Format settings, CABAC : Yes
Format settings, ReFrames : 12 frames
Codec ID : V_MPEG4/ISO/AVC
Duration : 2h 18mn
Bit rate : 7 000 Kbps
Width : 1 280 pixels
Height : 536 pixels
Display aspect ratio : 2.40:1
Frame rate mode : Constant
Frame rate : 24.000 fps
Color space : YUV
Chroma subsampling : 4:2:0
Bit depth : 8 bits
Scan type : Progressive
Bits/(Pixel*Frame) : 0.425
Stream size : 6.59 GiB (77%)
Writing library : x264 core 142 r2479 dd79a61
Encoding settings : cabac=1 / ref=12 / deblock=1:-3:-3 / analyse=0x3:0x133 / me=umh / subme=11 / psy=1 / psy_rd=1.05:0.10 / mixed_ref=1 / me_range=32 / chroma_me=1 / trellis=2 / 8x8dct=1 / cqm=0 / deadzone=21,11 / fast_pskip=0 / chroma_qp_offset=-3 / threads=12 / lookahead_threads=2 / sliced_threads=0 / nr=0 / decimate=0 / interlaced=0 / bluray_compat=0 / constrained_intra=0 / bframes=8 / b_pyramid=2 / b_adapt=2 / b_bias=0 / direct=3 / weightb=1 / open_gop=0 / weightp=2 / keyint=250 / keyint_min=24 / scenecut=40 / intra_refresh=0 / rc_lookahead=80 / rc=2pass / mbtree=1 / bitrate=7000 / ratetol=1.0 / qcomp=0.75 / qpmin=0 / qpmax=69 / qpstep=4 / cplxblur=20.0 / qblur=0.5 / ip_ratio=1.40 / aq=1:0.70
Language : English
Default : Yes
Forced : No
_STATISTICS_WRITING_APP : mkvmerge v7.1.0 ('Good Love') 64bit built on Jul 27 2014 13:06:55
_STATISTICS_WRITING_DATE_UTC : 2015-08-18 12:30:24
_STATISTICS_TAGS : BPS DURATION NUMBER_OF_FRAMES NUMBER_OF_BYTES
DURATION : 02:18:20.625000000
NUMBER_OF_FRAMES : 199215
NUMBER_OF_BYTES : 7261312946
Audio #1
ID : 2
Format : AC-3
Format/Info : Audio Coding 3
Mode extension : CM (complete main)
Format settings, Endianness : Big
Codec ID : A_AC3
Duration : 2h 18mn
Bit rate mode : Constant
Bit rate : 384 Kbps
Channel(s) : 6 channels
Channel positions : Front: L C R, Side: L R, LFE
Sampling rate : 48.0 KHz
Bit depth : 16 bits
Compression mode : Lossy
Stream size : 380 MiB (4%)
Language : Russian
Default : Yes
Forced : No
Audio #2
ID : 3
Format : DTS
Format/Info : Digital Theater Systems
Mode : 16
Format settings, Endianness : Big
Codec ID : A_DTS
Duration : 2h 18mn
Bit rate mode : Constant
Bit rate : 1 509 Kbps
Channel(s) : 2 channels
Channel positions : Front: L R
Sampling rate : 48.0 KHz
Bit depth : 24 bits
Compression mode : Lossy
Stream size : 1.46 GiB (17%)
Language : German
Default : No
Forced : No
Text #1
ID : 4
Format : UTF-8
Codec ID : S_TEXT/UTF8
Codec ID/Info : UTF-8 Plain Text
Language : Russian
Default : No
Forced : No
Text #2
ID : 5
Format : UTF-8
Codec ID : S_TEXT/UTF8
Codec ID/Info : UTF-8 Plain Text
Language : German
Default : No
Forced : No
Menu
00:00:00.000 : en:00:00:00.000
00:10:53.000 : en:00:10:53.000
00:22:17.000 : en:00:22:17.000
00:32:41.000 : en:00:32:41.000
00:38:26.000 : en:00:38:26.000
00:45:01.208 : en:00:45:01.208
00:52:30.000 : en:00:52:30.000
00:58:26.000 : en:00:58:26.000
01:03:30.000 : en:01:03:30.000
01:17:48.000 : en:01:17:48.000
01:25:59.625 : en:01:25:59.625
01:41:58.000 : en:01:41:58.000
01:51:02.000 : en:01:51:02.000
01:58:06.000 : en:01:58:06.000
02:06:44.000 : en:02:06:44.000

Скриншоты




Показать сообщения:    

Текущее время: 07-Дек 15:29

Часовой пояс: UTC + 3


Вы не можете начинать темы
Вы не можете отвечать на сообщения
Вы не можете редактировать свои сообщения
Вы не можете удалять свои сообщения
Вы не можете голосовать в опросах
Вы не можете прикреплять файлы к сообщениям
Вы не можете скачивать файлы