Остановка на перегоне / Halt auf freier Strecke / Stopped on Track (Андреас Дрезен / Andreas Dresen) [2011, Германия, Франция, драма, BDRip 1080p] VO (Адиль Бакеев) + Original (Ger) + Sub (Rus, Eng, Ger)


 

[Цитировать]

Остановка на перегоне / Halt auf freier Strecke / Stopped on Track Страна: Германия, Франция
Жанр: драма
Год выпуска: 2011
Продолжительность: 01:49:50
Перевод: Одноголосый закадровый Адиль Бакеев
Cубтитры: английские, русские (Kacablanka), немецкие (SDH)
Оригинальная аудиодорожка: немецкий
Режиссер: Андреас Дрезен / Andreas Dresen
В ролях: Штеффи Кюнерт, Милан Пешель, Талиса Лилли Лемке, Мика Сидел, Урсула Вернер, Мари Роза Титджен, Отто Мелис, Кристина Шорн, Бернхард Шюц, Торстен Мертен
Описание:
Успешный 44-летний мужчина узнает о том, что он неизлечимо болен и жить ему осталось совсем недолго. Он пытается фиксировать последние дни своей жизни - радиотерапия, химия, боли, галлюцинации, потеря памяти и ориентации в пространстве, утрата возможности двигаться и функционировать. Постепенно он отдаляется от родных и близких. Болезнь пожирает его личность
- -Тип релиза: BDRip 1080p (рип от HDS)
Контейнер: MKV
Видео: AVC (x264), 1920x1040 (1,85:1) at 24,000 fps, 9000 Кbps, 0.188 bpp
Аудио 1: AC3; 448 Kbps; CBR; 6 ch; 48 khz | VO - Адиль Бакеев |
Аудио 2: AC3; 448 Kbps; CBR; 6 ch; 48 khz | Немецкий |
Формат субтитров: softsub (SRT)

Скриншоты || x264 Info || MediaInfo || NotesMediaInfo

General
Unique ID                                : 249342604640093307312990174267875907390 (0xBB95A38CE79FC8568E9792B09739D73E)
Complete name                            : Остановка на перегоне.2011.L1.1080p.BluRay.x264-HDS.mkv
Format                                   : Matroska
Format version                           : Version 4 / Version 2
File size                                : 7.59 GiB
Duration                                 : 1h 49mn
Overall bit rate                         : 9 894 Kbps
Movie name                               : Halt auf freier Strecke [2011] [1080p] VO
Encoded date                             : UTC 2015-08-15 04:32:18
Writing application                      : mkvmerge v7.8.0 ('River Man') 32bit built on Mar 27 2015 16:18:02
Writing library                          : libebml v1.3.1 + libmatroska v1.4.2
Video
ID                                       : 1
Format                                   : AVC
Format/Info                              : Advanced Video Codec
Format profile                           : High@L4.1
Format settings, CABAC                   : Yes
Format settings, ReFrames                : 4 frames
Codec ID                                 : V_MPEG4/ISO/AVC
Duration                                 : 1h 49mn
Bit rate                                 : 9 000 Kbps
Width                                    : 1 920 pixels
Height                                   : 1 040 pixels
Display aspect ratio                     : 1.85:1
Frame rate mode                          : Constant
Frame rate                               : 24.000 fps
Color space                              : YUV
Chroma subsampling                       : 4:2:0
Bit depth                                : 8 bits
Scan type                                : Progressive
Bits/(Pixel*Frame)                       : 0.188
Stream size                              : 6.75 GiB (89%)
Title                                    : profile.php?mode=viewprofile&u=22488948
Writing library                          : x264 core 125 r2208 d9d2288
Encoding settings                        : cabac=1 / ref=4 / deblock=1:-3:-3 / analyse=0x3:0x113 / me=umh / subme=10 / psy=1 / psy_rd=1.15:0.00 / mixed_ref=1 / me_range=32 / chroma_me=1 / trellis=2 / 8x8dct=1 / cqm=0 / deadzone=21,11 / fast_pskip=0 / chroma_qp_offset=-2 / threads=12 / lookahead_threads=2 / sliced_threads=0 / nr=0 / decimate=1 / interlaced=0 / bluray_compat=0 / constrained_intra=0 / bframes=9 / b_pyramid=2 / b_adapt=2 / b_bias=0 / direct=3 / weightb=1 / open_gop=0 / weightp=2 / keyint=250 / keyint_min=23 / scenecut=40 / intra_refresh=0 / rc=2pass / mbtree=0 / bitrate=9000 / ratetol=1.0 / qcomp=0.60 / qpmin=0 / qpmax=69 / qpstep=4 / cplxblur=20.0 / qblur=0.5 / ip_ratio=1.40 / pb_ratio=1.30 / aq=1:1.10
Language                                 : German
Default                                  : Yes
Forced                                   : No
Audio #1
ID                                       : 2
Format                                   : AC-3
Format/Info                              : Audio Coding 3
Mode extension                           : CM (complete main)
Format settings, Endianness              : Big
Codec ID                                 : A_AC3
Duration                                 : 1h 49mn
Bit rate mode                            : Constant
Bit rate                                 : 448 Kbps
Channel(s)                               : 6 channels
Channel positions                        : Front: L C R, Side: L R, LFE
Sampling rate                            : 48.0 KHz
Bit depth                                : 16 bits
Compression mode                         : Lossy
Stream size                              : 352 MiB (5%)
Title                                    : VO [Адиль Бакеев]
Language                                 : Russian
Default                                  : Yes
Forced                                   : No
Audio #2
ID                                       : 3
Format                                   : AC-3
Format/Info                              : Audio Coding 3
Mode extension                           : CM (complete main)
Format settings, Endianness              : Big
Codec ID                                 : A_AC3
Duration                                 : 1h 49mn
Bit rate mode                            : Constant
Bit rate                                 : 448 Kbps
Channel(s)                               : 6 channels
Channel positions                        : Front: L C R, Side: L R, LFE
Sampling rate                            : 48.0 KHz
Bit depth                                : 16 bits
Compression mode                         : Lossy
Stream size                              : 352 MiB (5%)
Language                                 : German
Default                                  : No
Forced                                   : No
Text #1
ID                                       : 4
Format                                   : UTF-8
Codec ID                                 : S_TEXT/UTF8
Codec ID/Info                            : UTF-8 Plain Text
Language                                 : English
Default                                  : No
Forced                                   : No
Text #2
ID                                       : 5
Format                                   : UTF-8
Codec ID                                 : S_TEXT/UTF8
Codec ID/Info                            : UTF-8 Plain Text
Title                                    : [Kasablanka]
Language                                 : Russian
Default                                  : No
Forced                                   : No
Text #3
ID                                       : 6
Format                                   : UTF-8
Codec ID                                 : S_TEXT/UTF8
Codec ID/Info                            : UTF-8 Plain Text
Title                                    : SDH
Language                                 : German
Default                                  : No
Forced                                   : No
Menu
00:00:00.000                             : de:00:00:00.000
00:08:12.042                             : de:00:08:12.042
00:20:42.417                             : de:00:20:42.417
00:29:44.167                             : de:00:29:44.167
00:35:22.333                             : de:00:35:22.333
00:43:34.917                             : de:00:43:34.917
00:47:38.167                             : de:00:47:38.167
00:54:19.333                             : de:00:54:19.333
01:07:04.833                             : de:01:07:04.833
01:13:26.583                             : de:01:13:26.583
01:21:04.417                             : de:01:21:04.417
01:27:44.167                             : de:01:27:44.167
01:32:02.625                             : de:01:32:02.625
01:36:44.125                             : de:01:36:44.125
01:44:00.250                             : de:01:44:00.250
01:47:25.042                             : de:01:47:25.042
x264 Infox264 [info]: frame I:746 Avg QP:18.68 size:168644
x264 [info]: frame P:31605 Avg QP:20.59 size: 81744
x264 [info]: frame B:125824 Avg QP:23.03 size: 37368 Цитата: RU озвучка , thx: Adilytor
Русские субтитры, thx: Kacablanka
thx to: misthaufen, for filling my request



Показать сообщения:    

Текущее время: 09-Дек 06:57

Часовой пояс: UTC + 3


Вы не можете начинать темы
Вы не можете отвечать на сообщения
Вы не можете редактировать свои сообщения
Вы не можете удалять свои сообщения
Вы не можете голосовать в опросах
Вы не можете прикреплять файлы к сообщениям
Вы не можете скачивать файлы