Уитнэйл и Я / Withnail & I (Брюс Робинсон / Bruce Robinson) [1987, Великобритания, драма, комедия, BDRemux 1080p] MVO + Sub (Rus, Eng) + Original Eng


 

[Цитировать]

Уитнэйл и Я / Withnail & I
Страна: Великобритания
Жанр: драма, комедия
Год выпуска: 1987
Продолжительность: 01:47:24
Перевод: Профессиональный (многоголосый закадровый)
Cубтитры: русские (El Aurence), английские
Оригинальная аудиодорожка: английский-Режиссер: Брюс Робинсон / Bruce Robinson
В ролях: Ричард Грант, Пол МакГанн, Ричард Гриффитс, Ральф Браун, Майкл Элфик, Дара О'Мэлли, Майкл Уордль, Уна Брендон-Джонс, Ноэль Джонсон, Ирен Сатклифф, Ллевелин Риис, Роберт Оутс, Эдди Тэгоу
Описание: Герои этой ленты, Уитнейл и Марвуд, два безработных актёра, — очаровательные параноики, эксцентрики и декаденты, которые прожигают жизнь и тестируют различные субстанции, беспощадно перегружая печень алкоголем. Денег у них нет, еды — тоже, а совместная квартира уже стала непозволительной роскошью. Но друзей поджидают неожиданные приключения в загородной вотчине родственника — буйного гомосексуалиста дядюшки Монти…
IMDb || КиноПоиск-Тип релиза: BDRemux 1080p [Withnail & I 1987 1080p GBR Blu-ray AVC LPCM 1.0-ESiR]
Контейнер: MKV
Видео: MPEG-4 AVC Video, 1920x1080 at 23.976 fps, 34989 kbps
Аудио#1: Russian: 48 kHz, AC3, 2.0 ch, 192 kbps
Аудио#2: English: 48 kHz, FLAC, 1.0 ch, 694 kbps
Аудио#3: English: 48 kHz, AC3, 2.0 ch, 192 kbps |Commentary by Bruce Robinson
Аудио#4: English: 48 kHz, AC3, 2.0 ch, 192 kbps |Commentary by Kevin Jackson
Формат субтитров: softsub (SRT)
Сэмпл

MediaInfo

General
Unique ID : 236922261474508894519979997900297615577 (0xB23D915A75ECDB6EA4341306025A38D9)
Complete name : Withnail & I.1986.Remastered.BDRemux.mkv
Format : Matroska
Format version : Version 2
File size : 27.2 GiB
Duration : 1h 47mn
Overall bit rate mode : Variable
Overall bit rate : 36.3 Mbps
Movie name : Release for
Writing application : mkvmerge v5.0.1 ('Es ist Sommer') built on Nov 6 2011 16:23:40
Writing library : libebml v1.2.2 + libmatroska v1.3.0
Video
ID : 1
Format : AVC
Format/Info : Advanced Video Codec
Format profile : High@L4.1
Format settings, CABAC : Yes
Format settings, ReFrames : 3 frames
Codec ID : V_MPEG4/ISO/AVC
Duration : 1h 47mn
Bit rate mode : Variable
Nominal bit rate : 35.0 Mbps
Maximum bit rate : 40.0 Mbps
Width : 1 920 pixels
Height : 1 080 pixels
Display aspect ratio : 16:9
Frame rate mode : Constant
Frame rate : 23.976 fps
Color space : YUV
Chroma subsampling : 4:2:0
Bit depth : 8 bits
Scan type : Progressive
Bits/(Pixel*Frame) : 0.704
Title : Withnail & I.1986.Remastered.BDRemuxr
Writing library : x264 core 128 r2216 198a7ea
Encoding settings : cabac=1 / ref=4 / deblock=0:-1:-1 / analyse=0x3:0x133 / me=umh / subme=9 / psy=1 / psy_rd=1.00:0.15 / mixed_ref=1 / me_range=24 / chroma_me=1 / trellis=2 / 8x8dct=1 / cqm=0 / deadzone=21,11 / fast_pskip=1 / chroma_qp_offset=-3 / threads=12 / lookahead_threads=2 / sliced_threads=0 / slices=4 / nr=0 / decimate=1 / interlaced=0 / bluray_compat=1 / constrained_intra=0 / bframes=3 / b_pyramid=1 / b_adapt=2 / b_bias=0 / direct=3 / weightb=1 / open_gop=1 / weightp=1 / keyint=24 / keyint_min=1 / scenecut=40 / intra_refresh=0 / rc_lookahead=24 / rc=2pass / mbtree=0 / bitrate=35000 / ratetol=0.0 / qcomp=0.00 / qpmin=0 / qpmax=69 / qpstep=4 / cplxblur=20.0 / qblur=0.5 / vbv_maxrate=40000 / vbv_bufsize=30000 / nal_hrd=vbr / ip_ratio=1.40 / pb_ratio=1.30 / aq=0
Language : English
Default : Yes
Forced : No
Color primaries : BT.709
Transfer characteristics : BT.709
Matrix coefficients : BT.709
Audio #1
ID : 2
Format : AC-3
Format/Info : Audio Coding 3
Mode extension : CM (complete main)
Format settings, Endianness : Big
Codec ID : A_AC3
Duration : 1h 47mn
Bit rate mode : Constant
Bit rate : 192 Kbps
Channel(s) : 2 channels
Channel positions : Front: L R
Sampling rate : 48.0 KHz
Bit depth : 16 bits
Compression mode : Lossy
Stream size : 148 MiB (1%)
Language : Russian
Default : Yes
Forced : No
Audio #2
ID : 3
Format : FLAC
Format/Info : Free Lossless Audio Codec
Codec ID : A_FLAC
Duration : 1h 47mn
Bit rate mode : Variable
Channel(s) : 1 channel
Sampling rate : 48.0 KHz
Bit depth : 24 bits
Writing library : libFLAC 1.2.1 (UTC 2007-09-17)
Language : English
Default : No
Forced : No
Audio #3
ID : 4
Format : AC-3
Format/Info : Audio Coding 3
Mode extension : CM (complete main)
Format settings, Endianness : Big
Codec ID : A_AC3
Duration : 1h 47mn
Bit rate mode : Constant
Bit rate : 192 Kbps
Channel(s) : 2 channels
Channel positions : Front: L R
Sampling rate : 48.0 KHz
Bit depth : 16 bits
Compression mode : Lossy
Stream size : 148 MiB (1%)
Title : commentary by Bruce Robinson
Language : English
Default : No
Forced : No
Audio #4
ID : 5
Format : AC-3
Format/Info : Audio Coding 3
Mode extension : CM (complete main)
Format settings, Endianness : Big
Codec ID : A_AC3
Duration : 1h 47mn
Bit rate mode : Constant
Bit rate : 192 Kbps
Channel(s) : 2 channels
Channel positions : Front: L R
Sampling rate : 48.0 KHz
Bit depth : 16 bits
Compression mode : Lossy
Stream size : 148 MiB (1%)
Title : commentary by Kevin Jackson
Language : English
Default : No
Forced : No
Text #1
ID : 6
Format : UTF-8
Codec ID : S_TEXT/UTF8
Codec ID/Info : UTF-8 Plain Text
Language : Russian
Default : No
Forced : No
Text #2
ID : 7
Format : UTF-8
Codec ID : S_TEXT/UTF8
Codec ID/Info : UTF-8 Plain Text
Language : English
Default : No
Forced : No
Menu
00:00:00.000 : en:Chapter 1
00:08:38.017 : en:Chapter 2
00:16:32.032 : en:Chapter 3
00:23:06.676 : en:Chapter 4
00:29:01.030 : en:Chapter 5
00:36:40.281 : en:Chapter 6
00:46:38.003 : en:Chapter 7
00:55:00.714 : en:Chapter 8
01:08:09.085 : en:Chapter 9
01:21:42.689 : en:Chapter 10
01:28:52.201 : en:Chapter 11
01:42:23.804 : en:Chapter 12

Скриншоты

Anchor Bay vs Arrow Remastered



Показать сообщения:    

Текущее время: 06-Дек 05:38

Часовой пояс: UTC + 3


Вы не можете начинать темы
Вы не можете отвечать на сообщения
Вы не можете редактировать свои сообщения
Вы не можете удалять свои сообщения
Вы не можете голосовать в опросах
Вы не можете прикреплять файлы к сообщениям
Вы не можете скачивать файлы